Богемская рапсодия /Bohemian Rhapsody (2018) BDRip 1080p | 60 fps Джон Уик / John Wick (2014) BDRip 720p | 60 fps Властелин колец: Трилогия / The Lord of the Rings: Trilogy (2001-2003) BDRip-AVC | Extended Cut | 60 fps Щелкунчик и четыре королевства / The Nutcracker and the Four Realms (2018) BDRip 1080p | 60 fps Репродукция / Replicas (2018) BDRip 720p | 60 fps Клаустрофобы / Escape Room (2019) BDRip 1080p | 60 fps Зеленая книга / Green Book (2018) BDRip 720p | 60 fps Апгрейд / Upgrade (2018) BDRip 1080p | 60 fps
  1. Longevity:
    4 years 10 months
    Posts:
    2411
    Gender:
    Male
    Информация
    Название: Аферисты поневоле
    Оригинальное название: The Con Is On
    Год выхода: 2018
    Жанр: Комедия
    Режиссер: Джеймс Окли
    Сценарий: Алекс Михаэлидес, Джеймс Окли
    Продюсер: Роберт Огден Барнум, Кассиан Элвис
    В ролях: Паркер Поузи, Элис Ив, Мэгги Кью, София Вергара, Ума Турман, Криспин Гловер, Тим Рот, Эшли Уильямс, Мелисса Сью Андерсон, Стивен Фрай

    Сюжет:
    Британская пара, задолжавшая неприлично много денег опасному мафиози, сбегает в Лос-Анджелес. Супруги твердо намерены поправить свои дела: украсть роскошные драгоценности, расплатиться с долгами и начать безбедную жизнь с чистого листа. В общем, план изначально выглядит весьма сомнительно.

    Страна: США, Великобритания
    Продолжительность: 01:35:22

    Файл
    Кодек: H.264
    Формат: MKV
    Качество: BDRip 720p | 60 fps
    Видео: 1280 x 534 (2.397) | 59.940 fps | 10.0 Мбит/сек
    Аудио 01: AC3 | 5.1 | 48 kHz | 384 kbps | 16 bit | Дубляж - iTunes |
    Аудио 02: AC3 | 5.1 | 48 kHz | 448 kbps | 16 bit | english |
    Субтитры: english

    MedifInfo

    Видео
    Идентификатор : 1
    Формат : AVC
    Формат/Информация : Advanced Video Codec
    Профиль формата : Main@L4.1
    Настройки формата : CABAC / 5 Ref Frames
    Параметр CABAC формата : Да
    Параметр RefFrames формата : 5 кадров
    Режим смешивания : Header stripping
    Идентификатор кодека : V_MPEG4/ISO/AVC
    Продолжительность : 1 ч. 35 м.
    Битрейт : 9999 Кбит/сек
    Ширина : 1280 пикселей
    Высота : 534 пикселя
    Соотношение сторон : 2,40:1
    Режим частоты кадров : Постоянный
    Частота кадров : 59,940 (60000/1001) кадров/сек
    Цветовое пространство : YUV
    Субдискретизация насыщенности : 4:2:0
    Битовая глубина : 8 бит
    Тип развёртки : Прогрессивная
    Бит/(Пиксели*Кадры) : 0.244
    Размер потока : 6,51 Гбайт (90%)
    Заголовок : www.60-fps.org
    Библиотека кодирования : x264 core 155 r2901 7d0ff22
    Настройки программы : cabac=1 / ref=5 / deblock=1:-3:-3 / analyse=0x1:0x111 / me=hex / subme=8 / psy=1 / psy_rd=1.00:0.25 / mixed_ref=1 / me_range=16 / chroma_me=1 / trellis=2 / 8x8dct=0 / cqm=0 / deadzone=6,6 / fast_pskip=1 / chroma_qp_offset=-4 / threads=12 / lookahead_threads=2 / sliced_threads=0 / nr=0 / decimate=0 / interlaced=0 / bluray_compat=0 / constrained_intra=0 / bframes=3 / b_pyramid=2 / b_adapt=1 / b_bias=0 / direct=3 / weightb=1 / open_gop=0 / weightp=2 / keyint=599 / keyint_min=59 / scenecut=40 / intra_refresh=0 / rc_lookahead=50 / rc=2pass / mbtree=1 / bitrate=9999 / ratetol=1.0 / qcomp=0.80 / qpmin=0 / qpmax=69 / qpstep=4 / cplxblur=20.0 / qblur=0.5 / vbv_maxrate=50000 / vbv_bufsize=62500 / nal_hrd=none / filler=0 / ip_ratio=1.10 / aq=1:0.50
    Default : Да
    Forced : Нет
    Аудио #1
    Идентификатор : 2
    Формат : AC-3
    Формат/Информация : Audio Coding 3
    Режим смешивания : Header stripping
    Идентификатор кодека : A_AC3
    Продолжительность : 1 ч. 35 м.
    Вид битрейта : Постоянный
    Битрейт : 384 Кбит/сек
    Каналы : 6 каналов
    Расположение каналов : Front: L C R, Side: L R, LFE
    Частота : 48,0 КГц
    Частота кадров : 31,250 кадров/сек (1536 SPF)
    Битовая глубина : 16 бит
    Метод сжатия : С потерями
    Размер потока : 262 Мбайт (4%)
    Заголовок : Дубляж - iTunes
    Язык : Russian
    ServiceKind/String : Complete Main
    Default : Да
    Forced : Нет
    Аудио #2
    Идентификатор : 3
    Формат : AC-3
    Формат/Информация : Audio Coding 3
    Режим смешивания : Header stripping
    Идентификатор кодека : A_AC3
    Продолжительность : 1 ч. 35 м.
    Вид битрейта : Постоянный
    Битрейт : 448 Кбит/сек
    Каналы : 6 каналов
    Расположение каналов : Front: L C R, Side: L R, LFE
    Частота : 48,0 КГц
    Частота кадров : 31,250 кадров/сек (1536 SPF)
    Битовая глубина : 16 бит
    Метод сжатия : С потерями
    Размер потока : 306 Мбайт (4%)
    Заголовок : english
    Язык : English
    ServiceKind/String : Complete Main
    Default : Нет
    Forced : Нет
    Текст
    Идентификатор : 4
    Формат : UTF-8
    Идентификатор кодека : S_TEXT/UTF8
    Идентификатор кодека/Информация : UTF-8 Plain Text
    Заголовок : Full
    Язык : English
    Default : Нет
    Forced : Нет
    Меню
    00:00:00.000 : en:Chapter 1
    00:06:30.139 : en:Chapter 2
    00:12:33.461 : en:Chapter 3
    00:17:43.562 : en:Chapter 4
    00:23:38.250 : en:Chapter 5
    00:28:46.641 : en:Chapter 6
    00:36:22.722 : en:Chapter 7
    00:42:06.357 : en:Chapter 8
    00:48:10.012 : en:Chapter 9
    00:54:41.861 : en:Chapter 10
    00:59:12.298 : en:Chapter 11
    01:05:19.707 : en:Chapter 12
    01:09:29.665 : en:Chapter 13
    01:16:00.764 : en:Chapter 14
    01:22:38.370 : en:Chapter 15
    01:27:33.456 : en:Chapter 16

    Release was prepared by 60 - fps



You cannot post new topics in this forum
You cannot reply to topics in this forum
You cannot edit your posts in this forum
You cannot delete your posts in this forum
You cannot vote in polls in this forum
You cannot attach files in this forum
You cannot download files in this forum