[Цитировать]
Kryl

«У зла свой путь к победе»- Информация
Название: Адвокат дьявола
Оригинальное название: The Devil's Advocate
Год выхода: 1997
Жанр: криминал, драма, мистика
Режиссер: Тейлор Хэкфорд
Сценарий: Джонатан Лемкин, Тони Гилрой, Эндрю Нейдерман
Продюсер: Энн Копельсон, Арнольд Копельсон, Арнон Милчен
В ролях: Аль Пачино, Киану Ривз, Шарлиз Терон, Джеффри Джонс, Джудит Айви, Конни Нилсен, Крэйг Т. Нельсон, Тамара Тюни, Рубен Сантьяго-Хадсон, Дебра Монк
--Сюжет:
В Нью-Йорк по приглашению главы крупного юридического концерна прибывает Кевин Ломакс, молодой адвокат. До этого он был известен тем, что защищал исключительно негодяев и притом не проиграл ни одного процесса. На новом месте работы он вполне счастлив, он живет в роскошной квартире с любящей женой, его окружают интересные люди…- Страна: США, Германия
Продолжительность: 02:23:55

Файл
Кодек: MPEG4/ISO/AVC H.264
Формат: MKV
Качество: BDRip 720p | 60 fps
Видео: 1280 x 534 (2.397) | 59.940 fps | 8.0 Мбит/сек
Аудио 1: AC3 | 5.1 | 48 kHz | 384 kbps | 16 bit | Дубляж |
Аудио 2: AC3 | 2.0 | 48 kHz | 192 kbps | 16 bit | Профессиональный многоголосый - НТВ |
Аудио 3: AC3 | 5.1 | 48 kHz | 384 kbps | 16 bit | Авторский одноголосый - А.Гаврилов |
Аудио 4: AC3 | 5.1 | 48 kHz | 384 kbps | 16 bit | Авторский одноголосый - В.Завгородний |
Аудио 5: AC3 | 5.1 | 48 kHz | 384 kbps | 16 bit | Авторский одноголосый - Юрий Живов |
Аудио 6: AC3 | 2.0 | 48 kHz | 192 kbps | 16 bit | Авторский одноголосый - С.Визгунов |
Аудио 7: AC3 | 5.1 | 48 kHz | 448 kbps | 16 bit | ENG |
Субтитры: Русские, английские

MedifInfo

Видео
Идентификатор : 1
Формат : AVC
Формат/Информация : Advanced Video Codec
Профиль формата : High@L4.1
Параметр CABAC формата : Да
Параметр ReFrames формата : 5 кадров
Идентификатор кодека : V_MPEG4/ISO/AVC
Продолжительность : 2 ч. 23 м.
Битрейт : 7999 Кбит/сек
Ширина : 1280 пикселей
Высота : 534 пикселя
Соотношение сторон : 2,40:1
Режим частоты кадров : Постоянный
Частота кадров : 59,880 кадров/сек
Частота кадров в оригинале : 59,940 кадров/сек
Цветовое пространство : YUV
Субдискретизация насыщенности : 4:2:0
Битовая глубина : 8 бит
Тип развёртки : Прогрессивная
Бит/(Пиксели*Кадры) : 0.195
Размер потока : 7,84 Гбайт (76%)
Заголовок : www.60-fps.org
Библиотека кодирования : x264 core 148 r2638 7599210
Настройки программы : cabac=1 / ref=5 / deblock=1:-3:-3 / analyse=0x3:0x113 / me=umh / subme=8 / psy=1 / psy_rd=1.00:0.25 / mixed_ref=1 / me_range=32 / chroma_me=1 / trellis=1 / 8x8dct=1 / cqm=0 / deadzone=6,6 / fast_pskip=1 / chroma_qp_offset=-4 / threads=12 / lookahead_threads=2 / sliced_threads=0 / nr=0 / decimate=0 / interlaced=0 / bluray_compat=0 / constrained_intra=0 / bframes=3 / b_pyramid=2 / b_adapt=2 / b_bias=0 / direct=3 / weightb=1 / open_gop=0 / weightp=2 / keyint=599 / keyint_min=59 / scenecut=40 / intra_refresh=0 / rc_lookahead=50 / rc=2pass / mbtree=1 / bitrate=7999 / ratetol=1.0 / qcomp=0.80 / qpmin=0 / qpmax=69 / qpstep=4 / cplxblur=20.0 / qblur=0.5 / vbv_maxrate=62500 / vbv_bufsize=78125 / nal_hrd=none / filler=0 / ip_ratio=1.10 / aq=1:0.50
Default : Да
Forced : Нет
Аудио #1
Идентификатор : 2
Формат : AC-3
Формат/Информация : Audio Coding 3
Расширение режима : CM (complete main)
Параметр Endianness формата : Big
Идентификатор кодека : A_AC3
Продолжительность : 2 ч. 23 м.
Вид битрейта : Постоянный
Битрейт : 384 Кбит/сек
Каналы : 6 каналов
Расположение каналов : Front: L C R, Side: L R, LFE
Частота : 48,0 КГц
Битовая глубина : 16 бит
Метод сжатия : С потерями
Размер потока : 395 Мбайт (4%)
Заголовок : Дубляж
Default : Да
Forced : Нет
Аудио #2
Идентификатор : 3
Формат : AC-3
Формат/Информация : Audio Coding 3
Расширение режима : CM (complete main)
Параметр Endianness формата : Big
Идентификатор кодека : A_AC3
Продолжительность : 2 ч. 23 м.
Вид битрейта : Постоянный
Битрейт : 192 Кбит/сек
Каналы : 2 канала
Расположение каналов : Front: L R
Частота : 48,0 КГц
Битовая глубина : 16 бит
Метод сжатия : С потерями
Размер потока : 198 Мбайт (2%)
Заголовок : НТВ
Default : Нет
Forced : Нет
Аудио #3
Идентификатор : 4
Формат : AC-3
Формат/Информация : Audio Coding 3
Расширение режима : CM (complete main)
Параметр Endianness формата : Big
Идентификатор кодека : A_AC3
Продолжительность : 2 ч. 23 м.
Вид битрейта : Постоянный
Битрейт : 384 Кбит/сек
Каналы : 6 каналов
Расположение каналов : Front: L C R, Side: L R, LFE
Частота : 48,0 КГц
Битовая глубина : 16 бит
Метод сжатия : С потерями
Размер потока : 395 Мбайт (4%)
Заголовок : А.Гаврилов
Default : Нет
Forced : Нет
Аудио #4
Идентификатор : 5
Формат : AC-3
Формат/Информация : Audio Coding 3
Расширение режима : CM (complete main)
Параметр Endianness формата : Big
Идентификатор кодека : A_AC3
Продолжительность : 2 ч. 23 м.
Вид битрейта : Постоянный
Битрейт : 384 Кбит/сек
Каналы : 6 каналов
Расположение каналов : Front: L C R, Side: L R, LFE
Частота : 48,0 КГц
Битовая глубина : 16 бит
Метод сжатия : С потерями
Размер потока : 395 Мбайт (4%)
Заголовок : В.Завгороднев
Default : Нет
Forced : Нет
Аудио #5
Идентификатор : 6
Формат : AC-3
Формат/Информация : Audio Coding 3
Расширение режима : CM (complete main)
Параметр Endianness формата : Big
Идентификатор кодека : A_AC3
Продолжительность : 2 ч. 23 м.
Вид битрейта : Постоянный
Битрейт : 384 Кбит/сек
Каналы : 6 каналов
Расположение каналов : Front: L C R, Side: L R, LFE
Частота : 48,0 КГц
Битовая глубина : 16 бит
Метод сжатия : С потерями
Размер потока : 395 Мбайт (4%)
Заголовок : Ю.Живов
Default : Нет
Forced : Нет
Аудио #6
Идентификатор : 7
Формат : AC-3
Формат/Информация : Audio Coding 3
Расширение режима : CM (complete main)
Параметр Endianness формата : Big
Идентификатор кодека : A_AC3
Продолжительность : 2 ч. 23 м.
Вид битрейта : Постоянный
Битрейт : 192 Кбит/сек
Каналы : 2 канала
Расположение каналов : Front: L R
Частота : 48,0 КГц
Битовая глубина : 16 бит
Метод сжатия : С потерями
Размер потока : 198 Мбайт (2%)
Заголовок : С.Визгунов
Default : Нет
Forced : Нет
Аудио #7
Идентификатор : 8
Формат : AC-3
Формат/Информация : Audio Coding 3
Расширение режима : CM (complete main)
Параметр Endianness формата : Big
Идентификатор кодека : A_AC3
Продолжительность : 2 ч. 23 м.
Вид битрейта : Постоянный
Битрейт : 384 Кбит/сек
Каналы : 6 каналов
Расположение каналов : Front: L C R, Side: L R, LFE
Частота : 48,0 КГц
Битовая глубина : 16 бит
Метод сжатия : С потерями
Размер потока : 395 Мбайт (4%)
Заголовок : ENG
Default : Нет
Forced : Нет
Текст #1
Идентификатор : 9
Формат : UTF-8
Идентификатор кодека : S_TEXT/UTF8
Идентификатор кодека/Информация : UTF-8 Plain Text
Заголовок : Forced
Язык : Russian
Default : Нет
Forced : Нет
Текст #2
Идентификатор : 10
Формат : UTF-8
Идентификатор кодека : S_TEXT/UTF8
Идентификатор кодека/Информация : UTF-8 Plain Text
Заголовок : Full #1
Язык : Russian
Default : Нет
Forced : Нет
Текст #3
Идентификатор : 11
Формат : UTF-8
Идентификатор кодека : S_TEXT/UTF8
Идентификатор кодека/Информация : UTF-8 Plain Text
Заголовок : Full #2
Язык : Russian
Default : Нет
Forced : Нет
Текст #4
Идентификатор : 12
Формат : UTF-8
Идентификатор кодека : S_TEXT/UTF8
Идентификатор кодека/Информация : UTF-8 Plain Text
Язык : English
Default : Нет
Forced : Нет
Меню
00:00:00.000 : en:00:00:00.000
00:03:25.205 : en:00:03:25.205
00:04:57.506 : en:00:04:57.506
00:09:07.213 : en:00:09:07.213
00:12:06.225 : en:00:12:06.225
00:14:58.856 : en:00:14:58.856
00:18:13.592 : en:00:18:13.592
00:20:52.585 : en:00:20:52.585
00:26:20.621 : en:00:26:20.621
00:30:09.016 : en:00:30:09.016
00:33:45.482 : en:00:33:45.482
00:36:10.960 : en:00:36:10.960
00:38:31.851 : en:00:38:31.851
00:41:35.785 : en:00:41:35.785
00:46:58.858 : en:00:46:58.858
00:49:17.121 : en:00:49:17.121
00:53:22.658 : en:00:53:22.658
00:56:24.339 : en:00:56:24.339
00:58:35.971 : en:00:58:35.971
01:03:40.316 : en:01:03:40.316
01:06:08.590 : en:01:06:08.590
01:10:25.012 : en:01:10:25.012
01:12:54.287 : en:01:12:54.287
01:14:30.675 : en:01:14:30.675
01:17:15.297 : en:01:17:15.297
01:19:17.378 : en:01:19:17.378
01:22:14.388 : en:01:22:14.388
01:25:59.988 : en:01:25:59.988
01:28:50.033 : en:01:28:50.033
01:33:36.152 : en:01:33:36.152
01:38:52.635 : en:01:38:52.635
01:43:14.355 : en:01:43:14.355
01:45:40.960 : en:01:45:40.960
01:48:28.377 : en:01:48:28.377
01:53:21.253 : en:01:53:21.253
01:55:40.350 : en:01:55:40.350
01:56:59.137 : en:01:56:59.137
02:01:48.134 : en:02:01:48.134
02:05:55.798 : en:02:05:55.798
02:09:59.792 : en:02:09:59.792
02:12:23.853 : en:02:12:23.853
02:13:40.095 : en:02:13:40.095
02:16:36.647 : en:02:16:36.647
Киношка сделана по заказу пользователя
вячеслав

Релиз подготовлен 60 - fps

[60-fps.org].t2087.torrent
Торрент: Зарегистрирован [ 2016-05-30 00:12 ] · 7616EED57200E836203BD86B52B8DA1898DE077E

Скачать .torrent

Скачать

26 KB

Статус: проверено
Скачан: 58 раз
Поблагодарили:
Размер: 10,36 GB
 


Последний раз редактировалось: Kryl (2016-05-31 20:42), всего редактировалось 1 раз

[Цитировать]
deadsno

у вас косячок в оформлении . фамилия переводчика с ошибкой : он завгороднИЙ , а у вас завгороднев
а за релиз спасибо

[Цитировать]
Kryl

5937у вас косячок в оформлении . фамилия переводчика с ошибкой : он завгороднИЙ , а у вас завгороднев
а за релиз спасибо
Поправил . Улыбаюсь
 
Показать сообщения:    

Текущее время: 22-Фев 04:42

Часовой пояс: UTC + 3


Вы не можете начинать темы
Вы не можете отвечать на сообщения
Вы не можете редактировать свои сообщения
Вы не можете удалять свои сообщения
Вы не можете голосовать в опросах
Вы не можете прикреплять файлы к сообщениям
Вы можете скачивать файлы