1. Longevity:
    6 years 8 months
    Posts:
    283
    Gender:
    Male
    Adele - Rolling In The Deep (2010) Full HD 1080p | 60 fps

    Информация о Клипе:
    Исполнители: Adele
    Название: Rolling In The Deep
    Год выпуска: 2010 г.
    Жанр: Jazz, Soul, Pop
    Продолжительность: 00:03:53

    Файл:
    Формат видео: MKV
    Качество видео: Full HD 1080p | 60 fps
    Видео кодек: H.264
    Аудио кодек: AC3
    Видео: 1920x1080 | 59.940 fps | 20,0 Мбит/сек
    Аудио: AC3 | 2 channels | 48 kHz | 640 Кбит/сек

    Автор Рипа:Kamikkadze

    MediaInfo

    Видео
    Идентификатор : 1
    Формат : AVC
    Формат/Информация : Advanced Video Codec
    Профиль формата : [email protected]
    Параметр CABAC формата : Да
    Параметр ReFrames формата : 4 кадра
    Идентификатор кодека : V_MPEG4/ISO/AVC
    Продолжительность : 3 м. 53 с.
    Битрейт : 20,0 Мбит/сек
    Ширина : 1920 пикселей
    Высота : 1080 пикселей
    Соотношение сторон : 16:9
    Режим частоты кадров : Постоянный
    Частота кадров : 59,880 кадров/сек
    Частота кадров в оригинале : 59,940 кадров/сек
    Цветовое пространство : YUV
    Субдискретизация насыщенности : 4:2:0
    Битовая глубина : 8 бит
    Тип развёртки : Прогрессивная
    Бит/(Пиксели*Кадры) : 0.161
    Размер потока : 548 Мбайт (95%)
    Заголовок : Adele - Rolling In The Deep « R.G 60-FPS Rip By Kamikkadze »
    Библиотека кодирования : x264 core 146 r2538 121396c
    Настройки программы : cabac=1 / ref=3 / deblock=1:-1:-1 / analyse=0x3:0x113 / me=hex / subme=7 / psy=1 / psy_rd=1.00:0.15 / mixed_ref=1 / me_range=16 / chroma_me=1 / trellis=1 / 8x8dct=1 / cqm=0 / deadzone=21,11 / fast_pskip=1 / chroma_qp_offset=-3 / threads=6 / lookahead_threads=1 / sliced_threads=0 / nr=0 / decimate=1 / interlaced=0 / bluray_compat=0 / constrained_intra=0 / bframes=3 / b_pyramid=2 / b_adapt=1 / b_bias=0 / direct=3 / weightb=1 / open_gop=0 / weightp=2 / keyint=250 / keyint_min=25 / scenecut=40 / intra_refresh=0 / rc_lookahead=40 / rc=2pass / mbtree=1 / bitrate=20000 / ratetol=1.0 / qcomp=0.60 / qpmin=0 / qpmax=69 / qpstep=4 / cplxblur=20.0 / qblur=0.5 / ip_ratio=1.40 / aq=1:1.00
    Default : Да
    Forced : Нет
    Аудио
    Идентификатор : 2
    Формат : AC-3
    Формат/Информация : Audio Coding 3
    Расширение режима : CM (complete main)
    Параметр Endianness формата : Big
    Идентификатор кодека : A_AC3
    Продолжительность : 3 м. 53 с.
    Вид битрейта : Постоянный
    Битрейт : 640 Кбит/сек
    Каналы : 2 канала
    Расположение каналов : Front: L R
    Частота : 48,0 КГц
    Метод сжатия : С потерями
    Размер потока : 17,8 Мбайт (3%)
    Default : Да
    Forced : Нет
    Просьба к переливающим на другие сайты, в оформлении указывайте пожалуйста авторство рипа - Kamikkadze

    Release was prepared by 60-fps.org

  2. Longevity:
    5 years 1 month
    Posts:
    1
    Gender:
    Male
    Thanks!!!! Подмигиваю
    05-Aug-2016 18:53 (after 1 year 1 month)
  3. Longevity:
    3 years 2 months
    Posts:
    65
    Gender:
    Male
    Download is not Completed
    06-Oct-2020 19:18 (after 4 years 2 months)
  4. Longevity:
    4 years 7 months
    Posts:
    290
    Gender:
    Male
    11937Download is not Completed
    Download. I'm standing at the distribution.
    07-Oct-2020 17:10 (after 21 hour)
  5. Longevity:
    3 years 2 months
    Posts:
    65
    Gender:
    Male
    11940
    11937Download is not Completed
    Download. I'm standing at the distribution.
    Thank you
    08-Oct-2020 00:12 (after 7 hours)
  6. Longevity:
    3 years 2 months
    Posts:
    65
    Gender:
    Male
    Nurpus, Как и куда я могу загрузить свой файл?
    08-Oct-2020 01:03 (after 50 minutes)
  7. Longevity:
    5 years 1 month
    Posts:
    1661
    Gender:
    Male
    11942Nurpus, Как и куда я могу загрузить свой файл?
    Свой файл ты не можешь загрузить,для этого нужно быть МОДЕРАТОРОМ.
    08-Oct-2020 02:55 (after 1 hour 52 minutes)
  8. Longevity:
    3 years 2 months
    Posts:
    65
    Gender:
    Male
    Талямба, Как здесь стать модератором?
    08-Oct-2020 03:02 (after 6 minutes)


You cannot post new topics in this forum
You cannot reply to topics in this forum
You cannot edit your posts in this forum
You cannot delete your posts in this forum
You cannot vote in polls in this forum
You cannot attach files in this forum
You cannot download files in this forum