1. Longevity:
    4 years 10 months
    Posts:
    336
    Gender:
    Male
    Accept - Symphonic Terror (Live at Wacken 2017) Blu-Ray 1080p | 60 fps Информация о Клипе
    Исполнитель: Accept
    Название: Symphonic Terror (Live at Wacken 2017)
    Год выхода: 2017
    Продолжительность: 02:01:11
    Файл
    Кодек: MPEG4/ISO/AVC/ H.264
    Формат: MKV
    Качество: Blu-Ray 1080p
    Видео: 1920 x 1080 (16:9) at 60,000 fps 35.0 Мбит/сек
    Аудио: AC-3, 6ch, 640 Kbps
    Треклист:
    01 Die By The Sword
    02 Restless And Wild
    03 Koolaid
    04 Pandemic
    05 Final Journey
    06 Night On Bald Mountain
    07 Scherzo
    08 Romeo And Juliet
    09 Pathétique
    10 Double Cello Concerto In G Minor
    11 Symphony No. 40 IN G Minor
    12 Princess Of The Dawn
    13 Stalingrad
    14 Dark Side Of My Heart
    15 Breaker
    16 Shadow Soldiers
    17 Dying Breed
    18 Fast As A Shark
    19 Metal Heart
    20 Teutonic Terror
    21 Balls To The Wall
    22 Making Of: Wacken
    23 Making Of: Headbanger's Symphony

    MI

    Общее
    Уникальный идентификатор : 190570200486539362981953290557380335958 (0x8F5E7C4DD2C8EC43B8C22A0BBBD79956)
    Полное имя : H:\Clips\Concert\Accept - Symphonic Terror (Live at Wacken 2017) Blu-Ray 1080p.mkv
    Формат : Matroska
    Версия формата : Version 2
    Размер файла : 30,1 Гбайт
    Продолжительность : 2 ч. 1 м.
    Общий поток : 35,6 Мбит/сек
    Название фильма : Accept - Symphonic Terror (Live at Wacken 2017)
    Дата кодирования : UTC 2021-10-17 15:19:51
    Программа кодирования : mkvmerge v5.8.0 ('No Sleep / Pillow') built on Sep 2 2012 15:37:04
    Библиотека кодирования : libebml v1.2.3 + libmatroska v1.3.0
    Attachments : Poster
    Видео
    Идентификатор : 1
    Формат : AVC
    Формат/Информация : Advanced Video Codec
    Профиль формата : High@L4.1
    Параметр CABAC формата : Да
    Параметр ReFrames формата : 4 кадра
    Режим смешивания : Header stripping
    Идентификатор кодека : V_MPEG4/ISO/AVC
    Продолжительность : 2 ч. 1 м.
    Битрейт : 35,0 Мбит/сек
    Ширина : 1920 пикселей
    Высота : 1080 пикселей
    Соотношение сторон : 16:9
    Режим частоты кадров : Постоянный
    Частота кадров : 60,000 кадров/сек
    Цветовое пространство : YUV
    Субдискретизация насыщенности : 4:2:0
    Битовая глубина : 8 бит
    Тип развёртки : Прогрессивная
    Бит/(Пиксели*Кадры) : 0.281
    Размер потока : 29,0 Гбайт (96%)
    Библиотека кодирования : x264 core 146 r2538 121396c
    Настройки программы : cabac=1 / ref=4 / deblock=1:0:0 / analyse=0x3:0x113 / me=umh / subme=8 / psy=1 / psy_rd=1.00:0.25 / mixed_ref=1 / me_range=32 / chroma_me=1 / trellis=1 / 8x8dct=1 / cqm=0 / deadzone=6,6 / fast_pskip=1 / chroma_qp_offset=-4 / threads=12 / lookahead_threads=3 / sliced_threads=0 / nr=0 / decimate=0 / interlaced=0 / bluray_compat=0 / constrained_intra=0 / bframes=3 / b_pyramid=2 / b_adapt=2 / b_bias=0 / direct=3 / weightb=1 / open_gop=0 / weightp=2 / keyint=600 / keyint_min=60 / scenecut=40 / intra_refresh=0 / rc_lookahead=50 / rc=2pass / mbtree=1 / bitrate=35000 / ratetol=1.0 / qcomp=0.80 / qpmin=0 / qpmax=69 / qpstep=4 / cplxblur=20.0 / qblur=0.5 / vbv_maxrate=50000 / vbv_bufsize=50000 / nal_hrd=none / filler=0 / ip_ratio=1.10 / aq=1:0.50
    Язык : English
    Default : Да
    Forced : Нет
    Аудио
    Идентификатор : 2
    Формат : AC-3
    Формат/Информация : Audio Coding 3
    Расширение режима : CM (complete main)
    Параметр Endianness формата : Big
    Режим смешивания : Header stripping
    Идентификатор кодека : A_AC3
    Продолжительность : 2 ч. 1 м.
    Вид битрейта : Постоянный
    Битрейт : 640 Кбит/сек
    Каналы : 6 каналов
    Расположение каналов : Front: L C R, Side: L R, LFE
    Частота : 44,1 КГц
    Частота кадров : 28,711 кадров/сек (1536 spf)
    Битовая глубина : 16 бит
    Метод сжатия : С потерями
    Размер потока : 555 Мбайт (2%)
    Default : Да
    Forced : Нет

    Release was prepared by 60-fps.org



You cannot post new topics in this forum
You cannot reply to topics in this forum
You cannot edit your posts in this forum
You cannot delete your posts in this forum
You cannot vote in polls in this forum
You cannot attach files in this forum
You cannot download files in this forum