Властелин колец: Трилогия / The Lord of the Rings: Trilogy (2001-2003) BDRip-AVC | Extended Cut | 60 fps К звёздам / Ad Astra (2019) BDRip 1080p | 60 fps Принц Персии: Пески времени / Prince of Persia: The Sands of Time (2010) BDRip 1080p | 60 fps 21 мост / 21 Bridges (2019) BDRip 1080p | 60 fps Достать ножи / Knives Out (2019) BDRip 1080p | 60 fps Паразиты / Gisaengchung (2019) BDRip 1080p | 60 fps Удивительное путешествие доктора Дулиттла / Dolittle (2020) BDRip 1080p | 60 fps День, когда Земля остановилась / The Day the Earth Stood Still (2008) BDRip 1080p | 60 fps
  1. Longevity:
    5 years 11 months
    Posts:
    2419
    Gender:
    Male
    «Защити свою страну!»- Информация
    Название: Абсолютная власть
    Оригинальное название: Imperium
    Год выхода: 2016
    Жанр: Триллер, драма, криминал
    Режиссер: Даниэль Рагуссис
    Сценарий: Даниэль Рагуссис, Майкл Герман
    Продюсер: Дэннис Ли, Даниэль Рагуссис, Саймон Тофик
    В ролях: Дэниэл Рэдклифф, Тони Коллетт, Трэйси Леттс, Сэм Трэммелл, Нестор Карбонелл, Крис Салливан, Сет Нумрик, Павел Жайда, Девин Друид, Берн Горман
    --Сюжет:
    Агент ФБР под прикрытием внедряется в банду нео-нацистов для предотвращения теракта. Каково это — жить каждый день в потоке насилия и жестокости, отстаивать свое право кулаками, выбрить череп и закрыть душу? Что такое нео-нацизм -это не только хулиганы и скинхеды, но и благополучные господа в дорогих костюмах, готовые уничтожить город ради идеи.- Страна: США
    Продолжительность: 01:48:36

    Файл
    Кодек: MPEG4/ISO/AVC/H.264
    Формат: MKV
    Качество: BDRip 720p | 60 fps
    Видео: 1280 x 536 (2.388) | 59.940 fps | 8.0 Мбит/сек
    Аудио 1: AC3 | 5.1 | 48 kHz | 640 kbps | 16 bit | Любительский многоголосый (закадровый) - Студия "Paradox" & "Omsbird records". |
    Аудио 2: AC3 | 5.1 | 48 kHz | 640 kbps | 16 bit | ENG |
    Субтитры: Eng

    MedifInfo

    Видео
    Идентификатор : 1
    Формат : AVC
    Формат/Информация : Advanced Video Codec
    Профиль формата : High@L4.1
    Параметр CABAC формата : Да
    Параметр ReFrames формата : 3 кадра
    Идентификатор кодека : V_MPEG4/ISO/AVC
    Продолжительность : 1 ч. 48 м.
    Вид битрейта : Переменный
    Битрейт : 7616 Кбит/сек
    Максимальный битрейт : 8000 Кбит/сек
    Ширина : 1280 пикселей
    Высота : 536 пикселей
    Соотношение сторон : 2,40:1
    Режим частоты кадров : Постоянный
    Частота кадров : 59,880 кадров/сек
    Частота кадров в оригинале : 59,940 кадров/сек
    Стандарт вещания : PAL
    Цветовое пространство : YUV
    Субдискретизация насыщенности : 4:2:0
    Битовая глубина : 8 бит
    Тип развёртки : Прогрессивная
    Бит/(Пиксели*Кадры) : 0.185
    Размер потока : 5,78 Гбайт (84%)
    Заголовок : www.60-fps.org
    Язык : English
    Default : Да
    Forced : Нет
    Основные цвета : BT.601 NTSC
    Характеристики трансфера : BT.601
    Коэффициенты матрицы : BT.601
    colour_range : Limited
    Аудио #1
    Идентификатор : 2
    Формат : AC-3
    Формат/Информация : Audio Coding 3
    Расширение режима : CM (complete main)
    Параметр Endianness формата : Big
    Идентификатор кодека : A_AC3
    Продолжительность : 1 ч. 48 м.
    Вид битрейта : Постоянный
    Битрейт : 640 Кбит/сек
    Каналы : 6 каналов
    Расположение каналов : Front: L C R, Side: L R, LFE
    Частота : 48,0 КГц
    Битовая глубина : 16 бит
    Метод сжатия : С потерями
    Размер потока : 497 Мбайт (7%)
    Заголовок : MVO-AC3 ["Paradox" & "Omsbird records"]
    Язык : Russian
    Default : Нет
    Forced : Нет
    Аудио #2
    Идентификатор : 3
    Формат : AC-3
    Формат/Информация : Audio Coding 3
    Расширение режима : CM (complete main)
    Параметр Endianness формата : Big
    Идентификатор кодека : A_AC3
    Продолжительность : 1 ч. 48 м.
    Вид битрейта : Постоянный
    Битрейт : 640 Кбит/сек
    Каналы : 6 каналов
    Расположение каналов : Front: L C R, Side: L R, LFE
    Частота : 48,0 КГц
    Битовая глубина : 16 бит
    Метод сжатия : С потерями
    Размер потока : 497 Мбайт (7%)
    Заголовок : Eng
    Default : Нет
    Forced : Нет
    Текст #1
    Идентификатор : 4
    Формат : UTF-8
    Идентификатор кодека : S_TEXT/UTF8
    Идентификатор кодека/Информация : UTF-8 Plain Text
    Заголовок : Full
    Язык : English
    Default : Нет
    Forced : Нет
    Текст #2
    Идентификатор : 5
    Формат : UTF-8
    Идентификатор кодека : S_TEXT/UTF8
    Идентификатор кодека/Информация : UTF-8 Plain Text
    Заголовок : SDH
    Язык : English
    Default : Нет
    Forced : Нет
    Меню
    00:00:00.000 : en:(01)00:00:00:000
    00:07:07.260 : en:(02)00:07:07:260
    00:14:49.680 : en:(03)00:14:49:680
    00:21:11.645 : en:(04)00:21:11:645
    00:27:08.835 : en:(05)00:27:08:835
    00:33:24.002 : en:(06)00:33:24:002
    00:39:43.255 : en:(07)00:39:43:255
    00:46:01.008 : en:(08)00:46:01:008
    00:51:49.564 : en:(09)00:51:49:564
    00:57:56.639 : en:(10)00:57:56:639
    01:05:00.271 : en:(11)01:05:00:271
    01:11:59.898 : en:(12)01:11:59:898
    01:19:28.221 : en:(13)01:19:28:221
    01:26:43.573 : en:(14)01:26:43:573
    01:30:29.799 : en:(15)01:30:29:799
    01:38:49.590 : en:(16)01:38:49:590
    01:48:36.301 : en:(17)01:48:36:301

    Release was prepared by 60 - fps

  2. bot

    Longevity:
    5 years 11 months
    Posts:
    410
    Gender:
    Unknown
    Топик был перенесен из форума Новинки Кино 60 FPS в форум Зарубежные фильмы 60 FPS
    Kryl
    02-Nov-2016 22:54 (after 9 days)
  3. Longevity:
    5 years 1 month
    Posts:
    149
    Gender:
    Male
    Большое Спасибо! Овации
    03-Nov-2016 09:14 (after 10 days)
  4. Longevity:
    5 years 11 months
    Posts:
    2419
    Gender:
    Male
    ENIGMA,
    Пожалуйста .
    03-Nov-2016 17:41 (after 8 hours)


You cannot post new topics in this forum
You cannot reply to topics in this forum
You cannot edit your posts in this forum
You cannot delete your posts in this forum
You cannot vote in polls in this forum
You cannot attach files in this forum
You cannot download files in this forum