[Цитировать]
Kryl

«Corrupts Absolutely»- Информация
Название: Абсолютная власть
Оригинальное название: Absolute Power
Год выхода: 1997
Жанр: Детектив, триллер, экранизация
Режиссер: Клинт Иствуд
Сценарий: Уильям Голдмен, Дэвид Бальдаччи
Продюсер: Клинт Иствуд, Майкл Морер, Том Рукер
В ролях: Клинт Иствуд, Джин Хэкмен, Эд Харрис, Лора Линни, Скотт Гленн, Дэннис Хэйсберт, Джуди Дэвис, Э. Г. Маршалл, Мелора Хардин, Кеннет Уэлш, Роберт Харви, Джой Эрлих, Джек Стюарт Тейлор, Кимбер Иствуд, Джон Лайл Кэмпбелл, Чарльз МакДэниэл, Джордж Оррисон, Элисон Иствуд, Илэйн Каган, Марк Марголис, Ричард Дженкинс, Пенни Джонсон
--Сюжет:
Лютер Уитни — гениальный вор драгоценностей. Он свое отсидел еще тридцать лет назад. С тех пор не имел никаких дел с полицией. А тут — «черт попутал». Основательно подготовившись, он забрался в роскошный особняк знаменитого филантропа Салливана и стянул женских украшений на многие-многие тысячи…
Но в этот момент в спальню вошли мужчина и женщина. Женщина — Кристи, супруга Салливана, мужчина — страшно подумать — президент Соединенных Штатов Ричмонд! Уитни спрятался и наблюдал, как любовный флирт перерос в борьбу. Президент проявил склонность к садизму, а Кристи взялась за нож для резки бумаги и ранила партнера. В спальню ворвались охранники, и Кристи застрелили. К несчастью, Уитни не удалось остаться инкогнито, хотя он и сумел сбежать…
- Страна: США
Продолжительность: 02:01:10

Файл
Кодек: MPEG4/ISO/AVC/H.264
Формат: MKV
Качество: BDRip 720p | 60 fps
Видео: 1280 x 534 (2.397) | 59.940 fps | 8.0 Мбит/сек
Аудио 1: AC3 | 2.0 | 48 kHz | 192 kbps | 16 bit | Профессиональный многоголосый - РТР |
Аудио 2: AC3 | 5.1 | 48 kHz | 384 kbps | 16 bit | Профессиональный двухголосый - R5 |
Аудио 3: AC3 | 5.1 | 48 kHz | 448 kbps | 16 bit | Авторский одноголосый - А. Гаврилов |
Аудио 4: AC3 | 5.1 | 48 kHz | 448 kbps | 16 bit | Авторский одноголосый - Ю. Живов |
Аудио 5: AC3 | 5.1 | 48 kHz | 448 kbps | 16 bit | Авторский одноголосый - В. Казаков |
Аудио 6: AC3 | 5.1 | 48 kHz | 384 kbps | 16 bit | Профессиональный многоголосый - ТВ+ |
Аудио 7: AC3 | 5.1 | 48 kHz | 448 kbps | 16 bit | ENG |
Субтитры: Русские, Eng

MedifInfo

Видео
Идентификатор : 1
Формат : AVC
Формат/Информация : Advanced Video Codec
Профиль формата : High@L4.1
Параметр CABAC формата : Да
Параметр ReFrames формата : 3 кадра
Параметр GOP формата : M=3, N=72
Идентификатор кодека : V_MPEG4/ISO/AVC
Продолжительность : 2 ч. 1 м.
Вид битрейта : Переменный
Битрейт : 7696 Кбит/сек
Максимальный битрейт : 8000 Кбит/сек
Ширина : 1280 пикселей
Высота : 534 пикселя
Соотношение сторон : 2,40:1
Режим частоты кадров : Постоянный
Частота кадров : 59,880 кадров/сек
Частота кадров в оригинале : 59,940 кадров/сек
Стандарт вещания : PAL
Цветовое пространство : YUV
Субдискретизация насыщенности : 4:2:0
Битовая глубина : 8 бит
Тип развёртки : Прогрессивная
Бит/(Пиксели*Кадры) : 0.188
Размер потока : 6,51 Гбайт (72%)
Заголовок : www.60-fps.org
Язык : English
Default : Да
Forced : Нет
Основные цвета : BT.601 NTSC
Характеристики трансфера : BT.601
Коэффициенты матрицы : BT.601
colour_range : Limited
Аудио #1
Идентификатор : 2
Формат : AC-3
Формат/Информация : Audio Coding 3
Расширение режима : CM (complete main)
Параметр Endianness формата : Big
Идентификатор кодека : A_AC3
Продолжительность : 2 ч. 1 м.
Вид битрейта : Постоянный
Битрейт : 192 Кбит/сек
Каналы : 2 канала
Расположение каналов : Front: L R
Частота : 48,0 КГц
Битовая глубина : 16 бит
Метод сжатия : С потерями
Размер потока : 166 Мбайт (2%)
Заголовок : Профессиональный многоголосый (РТР)
Язык : Russian
Default : Да
Forced : Да
Аудио #2
Идентификатор : 3
Формат : AC-3
Формат/Информация : Audio Coding 3
Расширение режима : CM (complete main)
Параметр Endianness формата : Big
Идентификатор кодека : A_AC3
Продолжительность : 2 ч. 1 м.
Вид битрейта : Постоянный
Битрейт : 384 Кбит/сек
Каналы : 6 каналов
Расположение каналов : Front: L C R, Side: L R, LFE
Частота : 48,0 КГц
Битовая глубина : 16 бит
Метод сжатия : С потерями
Размер потока : 333 Мбайт (4%)
Заголовок : Профессиональный двухголосый (R5)
Язык : Russian
Default : Нет
Forced : Нет
Аудио #3
Идентификатор : 4
Формат : AC-3
Формат/Информация : Audio Coding 3
Расширение режима : CM (complete main)
Параметр Endianness формата : Big
Идентификатор кодека : A_AC3
Продолжительность : 2 ч. 1 м.
Вид битрейта : Постоянный
Битрейт : 448 Кбит/сек
Каналы : 6 каналов
Расположение каналов : Front: L C R, Side: L R, LFE
Частота : 48,0 КГц
Битовая глубина : 16 бит
Метод сжатия : С потерями
Размер потока : 388 Мбайт (4%)
Заголовок : Авторский одноголосый (А. Гаврилов)
Язык : Russian
Default : Нет
Forced : Нет
Аудио #4
Идентификатор : 5
Формат : AC-3
Формат/Информация : Audio Coding 3
Расширение режима : CM (complete main)
Параметр Endianness формата : Big
Идентификатор кодека : A_AC3
Продолжительность : 2 ч. 1 м.
Вид битрейта : Постоянный
Битрейт : 448 Кбит/сек
Каналы : 6 каналов
Расположение каналов : Front: L C R, Side: L R, LFE
Частота : 48,0 КГц
Битовая глубина : 16 бит
Метод сжатия : С потерями
Размер потока : 388 Мбайт (4%)
Заголовок : Авторский одноголосый (Ю. Живов)
Язык : Russian
Default : Нет
Forced : Нет
Аудио #5
Идентификатор : 6
Формат : AC-3
Формат/Информация : Audio Coding 3
Расширение режима : CM (complete main)
Параметр Endianness формата : Big
Идентификатор кодека : A_AC3
Продолжительность : 2 ч. 1 м.
Вид битрейта : Постоянный
Битрейт : 448 Кбит/сек
Каналы : 6 каналов
Расположение каналов : Front: L C R, Side: L R, LFE
Частота : 48,0 КГц
Битовая глубина : 16 бит
Метод сжатия : С потерями
Размер потока : 388 Мбайт (4%)
Заголовок : Авторский одноголосый (В. Казаков)
Язык : Russian
Default : Нет
Forced : Нет
Аудио #6
Идентификатор : 7
Формат : AC-3
Формат/Информация : Audio Coding 3
Расширение режима : CM (complete main)
Параметр Endianness формата : Big
Идентификатор кодека : A_AC3
Продолжительность : 2 ч. 1 м.
Вид битрейта : Постоянный
Битрейт : 384 Кбит/сек
Каналы : 6 каналов
Расположение каналов : Front: L C R, Side: L R, LFE
Частота : 48,0 КГц
Битовая глубина : 16 бит
Метод сжатия : С потерями
Размер потока : 333 Мбайт (4%)
Заголовок : Профессиональный многоголосый (ТВ+)
Язык : Ukrainian
Default : Нет
Forced : Нет
Аудио #7
Идентификатор : 8
Формат : AC-3
Формат/Информация : Audio Coding 3
Расширение режима : CM (complete main)
Параметр Endianness формата : Big
Идентификатор кодека : A_AC3
Продолжительность : 2 ч. 1 м.
Вид битрейта : Постоянный
Битрейт : 448 Кбит/сек
Каналы : 6 каналов
Расположение каналов : Front: L C R, Side: L R, LFE
Частота : 48,0 КГц
Битовая глубина : 16 бит
Метод сжатия : С потерями
Размер потока : 388 Мбайт (4%)
Заголовок : eng
Язык : English
Default : Нет
Forced : Нет
Текст #1
Идентификатор : 9
Формат : UTF-8
Идентификатор кодека : S_TEXT/UTF8
Идентификатор кодека/Информация : UTF-8 Plain Text
Заголовок : Русские субтитры
Язык : Russian
Default : Нет
Forced : Нет
Текст #2
Идентификатор : 10
Формат : UTF-8
Идентификатор кодека : S_TEXT/UTF8
Идентификатор кодека/Информация : UTF-8 Plain Text
Заголовок : SUB_ENG_SDH.srt
Язык : English
Default : Нет
Forced : Нет
Меню
00:00:00.000 : en:00:00:00.000
00:03:43.264 : en:00:03:43.264
00:08:17.079 : en:00:08:17.079
00:12:19.363 : en:00:12:19.363
00:15:39.855 : en:00:15:39.855
00:19:20.033 : en:00:19:20.033
00:21:08.016 : en:00:21:08.016
00:23:48.885 : en:00:23:48.885
00:27:02.912 : en:00:27:02.912
00:32:51.844 : en:00:32:51.844
00:35:58.906 : en:00:35:58.906
00:39:37.583 : en:00:39:37.583
00:43:06.750 : en:00:43:06.750
00:47:29.513 : en:00:47:29.513
00:49:59.621 : en:00:49:59.621
00:53:21.156 : en:00:53:21.156
00:54:57.752 : en:00:54:57.752
00:56:36.267 : en:00:56:36.267
01:01:52.917 : en:01:01:52.917
01:05:26.047 : en:01:05:26.047
01:08:05.706 : en:01:08:05.706
01:13:52.970 : en:01:13:52.970
01:16:45.142 : en:01:16:45.142
01:22:17.390 : en:01:22:17.390
01:25:35.839 : en:01:25:35.839
01:31:43.539 : en:01:31:43.539
01:36:09.555 : en:01:36:09.555
01:37:51.365 : en:01:37:51.365
01:40:42.911 : en:01:40:42.911
01:45:08.969 : en:01:45:08.969
01:47:23.645 : en:01:47:23.645
01:50:07.350 : en:01:50:07.350
01:53:09.282 : en:01:53:09.282
01:55:19.120 : en:01:55:19.120
01:57:06.019 : en:01:57:06.019

Релиз подготовлен 60 - fps

[Цитировать]
ENIGMA

Большое Спасибо Овации

[Цитировать]
Kryl

ENIGMA,
Пожалуйста.
 
Показать сообщения:    

Текущее время: 05-Дек 05:23

Часовой пояс: UTC + 3


Вы не можете начинать темы
Вы не можете отвечать на сообщения
Вы не можете редактировать свои сообщения
Вы не можете удалять свои сообщения
Вы не можете голосовать в опросах
Вы не можете прикреплять файлы к сообщениям
Вы не можете скачивать файлы