[Цитировать]
Kryl

А зори здесь тихие... (2015) WEB-DL 720p | 60 fps- Информация о фильме
Название: А зори здесь тихие...
Год выхода: 2015
Жанр: Драма, военный, история
Режиссер: Ренат Давлетьяров
Сценарий: Юрий Коротков, Артем Виткин, Ренат Давлетьяров
Продюсер: Ренат Давлетьяров, Влад Ряшин, Григорий Подземельный
В ролях: Пётр Фёдоров, Анастасия Микульчина, Женя Малахова, Агния Кузнецова, Софья Лебедева, Кристина Асмус, Екатерина Вилкова, Анатолий Белый, Дарья Мороз, Виктор Проскурин
--О фильме:
Май 1942 года. В самый разгар Великой Отечественной войны вдалеке от линии фронта, у забытого богом разъезда, фашисты выбрасывают десант с целью пробраться на Кировскую железную дорогу и Беломорско-Балтийский канал. Это не обычные солдаты-пехотинцы, это опытные, тренированные диверсанты, элита войск СС, «сверхлюди». А против них — старшина Васков и пять девчонок-зенитчиц. Казалось бы, бой местного значения, но на кону — стратегически важная транспортная артерия, соединяющая значимые центры страны. Смогут ли старшина и его хрупкие новобранцы предотвратить нацистскую диверсию, и какой ценой?- - Страна: Россия
Продолжительность: 01:50:59
-- Файл
Кодек: MPEG4/ISO/AVC H.264
Формат: MKV
Качество: WEB-DL 720p
Видео: 1280 x 542 (2.362) | 60.000 fps | 5.0 Мбит/сек
Аудио: AC-3 | 5.1 | 48 kHz | 384 kbps | 16 bit | iTunes |
Субтитры:нет

MedifInfo

Видео
Идентификатор : 1
Формат : AVC
Формат/Информация : Advanced Video Codec
Профиль формата : High@L4.1
Параметр CABAC формата : Да
Параметр ReFrames формата : 8 кадров
Идентификатор кодека : V_MPEG4/ISO/AVC
Продолжительность : 1 ч. 50 м.
Битрейт : 4999 Кбит/сек
Ширина : 1280 пикселей
Высота : 542 пикселя
Соотношение сторон : 2,35:1
Режим частоты кадров : Постоянный
Частота кадров : 60,000 кадров/сек
Цветовое пространство : YUV
Субдискретизация насыщенности : 4:2:0
Битовая глубина : 8 бит
Тип развёртки : Прогрессивная
Бит/(Пиксели*Кадры) : 0.120
Размер потока : 3,79 Гбайт (91%)
Заголовок : www.60-fps.org
Библиотека кодирования : x264 core 146 r2538 121396c
Настройки программы : cabac=1 / ref=8 / deblock=1:-2:-2 / analyse=0x3:0x133 / me=esa / subme=9 / psy=1 / psy_rd=1.00:0.25 / mixed_ref=1 / me_range=32 / chroma_me=1 / trellis=2 / 8x8dct=1 / cqm=0 / deadzone=6,6 / fast_pskip=1 / chroma_qp_offset=-4 / threads=12 / lookahead_threads=1 / sliced_threads=0 / nr=0 / decimate=0 / interlaced=0 / bluray_compat=0 / constrained_intra=0 / bframes=3 / b_pyramid=2 / b_adapt=2 / b_bias=0 / direct=3 / weightb=1 / open_gop=0 / weightp=2 / keyint=600 / keyint_min=60 / scenecut=40 / intra_refresh=0 / rc_lookahead=60 / rc=2pass / mbtree=1 / bitrate=4999 / ratetol=1.0 / qcomp=0.80 / qpmin=0 / qpmax=69 / qpstep=4 / cplxblur=20.0 / qblur=0.5 / vbv_maxrate=62500 / vbv_bufsize=78125 / nal_hrd=none / filler=0 / ip_ratio=1.10 / aq=1:0.50
Default : Да
Forced : Нет
Аудио
Идентификатор : 2
Формат : AC-3
Формат/Информация : Audio Coding 3
Расширение режима : CM (complete main)
Параметр Endianness формата : Big
Идентификатор кодека : A_AC3
Продолжительность : 1 ч. 50 м.
Вид битрейта : Постоянный
Битрейт : 384 Кбит/сек
Каналы : 6 каналов
Расположение каналов : Front: L C R, Side: L R, LFE
Частота : 48,0 КГц
Битовая глубина : 16 бит
Метод сжатия : С потерями
Размер потока : 305 Мбайт (7%)
Язык : Russian
Default : Да
Forced : Нет
Меню
00:00:00.000 : en:глава 1
00:07:13.000 : en:глава 2
00:14:17.000 : en:глава 3
00:20:11.000 : en:глава 4
00:28:33.000 : en:глава 5
00:34:31.000 : en:глава 6
00:42:11.000 : en:глава 7
00:49:45.000 : en:глава 8
00:56:28.000 : en:глава 9
01:04:07.000 : en:глава 10
01:10:34.000 : en:глава 11
01:17:45.000 : en:глава 12
01:25:21.000 : en:глава 13
01:33:11.000 : en:глава 14
01:40:40.000 : en:глава 15
01:46:16.000 : en:глава 16

Релиз подготовлен 60 - fps

[60-fps.org].t837.torrent
Торрент: Зарегистрирован [ 2015-07-03 09:34 ] · B51189C73992AD38BB854DE7FA45697E25C04028

Скачать .torrent

Скачать

12 KB

Статус: проверено
Скачан: 86 раз
Поблагодарили:
Размер: 4,17 GB
 
 
Показать сообщения:    

Текущее время: 25-Фев 18:57

Часовой пояс: UTC + 3


Вы не можете начинать темы
Вы не можете отвечать на сообщения
Вы не можете редактировать свои сообщения
Вы не можете удалять свои сообщения
Вы не можете голосовать в опросах
Вы не можете прикреплять файлы к сообщениям
Вы можете скачивать файлы