[Цитировать]
Kryl

-- Музыка 50 Cent - Ayo Technology ft. Justin Timberlake (2009) HD 1080p | 60 fps Музыка --Информация о Клипе
Исполнитель: 50 Cent
Название: Ayo Technology ft. Justin Timberlake
Год выхода: 2009
Продолжительность: 00:04:10-Файл
Кодек: MPEG4/ISO/AVC/ H.264
Формат: MKV
Качество: HD 1080p | 60 fps
Видео: 1920 x 800 (2.400) | 60.000 fps 15.0 Мбит/сек
Аудио: MP-3| 320 Кбит/сек | 48.0 KHz | 2 channels | 16 bits

MediaInfo

Видео
Идентификатор : 1
Формат : AVC
Формат/Информация : Advanced Video Codec
Профиль формата : High@L4.2
Параметр CABAC формата : Да
Параметр ReFrames формата : 3 кадра
Идентификатор кодека : V_MPEG4/ISO/AVC
Продолжительность : 4 м. 10 с.
Вид битрейта : Переменный
Битрейт : 14,7 Мбит/сек
Максимальный битрейт : 15,0 Мбит/сек
Ширина : 1920 пикселей
Высота : 800 пикселей
Соотношение сторон : 2,40:1
Режим частоты кадров : Постоянный
Частота кадров : 60,000 кадров/сек
Стандарт вещания : PAL
Цветовое пространство : YUV
Субдискретизация насыщенности : 4:2:0
Битовая глубина : 8 бит
Тип развёртки : Прогрессивная
Бит/(Пиксели*Кадры) : 0.159
Размер потока : 439 Мбайт (96%)
Заголовок : www.60-fps.org
Язык : English
Default : Да
Forced : Нет
Основные цвета : BT.709
Характеристики трансфера : BT.709
Коэффициенты матрицы : BT.709
colour_range : Limited
Аудио
Идентификатор : 2
Формат : MPEG Audio
Версия формата : Version 1
Профиль формата : Layer 3
Режим : Joint stereo
Расширение режима : MS Stereo
Идентификатор кодека : A_MPEG/L3
Идентификатор кодека/Подсказка : MP3
Продолжительность : 4 м. 10 с.
Вид битрейта : Постоянный
Битрейт : 320 Кбит/сек
Каналы : 2 канала
Частота : 44,1 КГц
Метод сжатия : С потерями
Размер потока : 9,56 Мбайт (2%)
Заголовок : MP3
Библиотека кодирования : LAME3.99.5
Default : Да
Forced : Нет

Релиз подготовлен 60 - fps

[Цитировать]
Taganiyaz

Спасибо за работу, но к сожалению не увидел разницы с оригиналом.
 
Показать сообщения:    

Текущее время: 29-Май 01:22

Часовой пояс: UTC + 3


Вы не можете начинать темы
Вы не можете отвечать на сообщения
Вы не можете редактировать свои сообщения
Вы не можете удалять свои сообщения
Вы не можете голосовать в опросах
Вы не можете прикреплять файлы к сообщениям
Вы не можете скачивать файлы