«We Fight Back»- Информация
Название: 5-я волна
Оригинальное название: The 5th Wave
Год выхода: 2016
Жанр: фантастика, боевик, триллер, приключения
Режиссер: Дж. Блэйксон
Сценарий: Сюзанна Грант, Акива Голдсман, Джефф Пинкнер
Продюсер: Тим Хэдингтон, Грэм Кинг, Тоби Магуайр
В ролях: Хлоя Грейс Морец, Ник Дж. Робинсон, Рон Ливингстон, Мэгги Сифф, Алекс Роу, Мария Белло, Майка Монро, Лив Шрайбер, Закари Артур, Тони Револори
--Сюжет:
Первая волна оставила за собой мглу. От второй успели убежать только самые везучие. Но едва ли можно назвать везучими тех, кто уцелел после третьей. А четвертая волна стерла все человеческие законы, взамен же установила свой, один-единственный: хочешь жить — не верь никому. И вот уже накатывает пятая волна…- - Страна: США
Продолжительность: 01:52:22

Файл
Кодек: MPEG4/ISO/AVC H.264
Формат: MKV
Качество: BDRip 720p | 60 fps
Видео: 1280x536 (2,40:1) | 59.940 fps | 4.6 Мбит/сек
Аудио 1: AC3 | 5.1 | 48 kHz | 384 kbps | 16 bit | Дубляж |
Аудио 2: AC3 | 5.1 | 48 kHz | 640 kbps | 16 bit | ENG |
Субтитры: Русские (форсированные), русские (полные), английские

MedifInfo

Видео
Идентификатор : 1
Формат : AVC
Формат/Информация : Advanced Video Codec
Профиль формата : High@L4.1
Параметр CABAC формата : Да
Параметр ReFrames формата : 9 кадров
Идентификатор кодека : V_MPEG4/ISO/AVC
Продолжительность : 1 ч. 52 м.
Битрейт : 4652 Кбит/сек
Ширина : 1280 пикселей
Высота : 536 пикселей
Соотношение сторон : 2,40:1
Режим частоты кадров : Постоянный
Частота кадров : 59,940 кадров/сек
Цветовое пространство : YUV
Субдискретизация насыщенности : 4:2:0
Битовая глубина : 8 бит
Тип развёртки : Прогрессивная
Бит/(Пиксели*Кадры) : 0.113
Размер потока : 3,65 Гбайт (82%)
Библиотека кодирования : x264 core 130 r2273 b3065e6
Настройки программы : cabac=1 / ref=9 / deblock=1:-2:-2 / analyse=0x3:0 / me=umh / subme=9 / psy=1 / psy_rd=1.00:0.10 / mixed_ref=1 / me_range=24 / chroma_me=0 / trellis=1 / 8x8dct=1 / cqm=0 / deadzone=21,11 / fast_pskip=0 / chroma_qp_offset=-3 / threads=3 / lookahead_threads=1 / sliced_threads=0 / nr=0 / decimate=0 / interlaced=0 / bluray_compat=0 / constrained_intra=0 / bframes=6 / b_pyramid=2 / b_adapt=2 / b_bias=0 / direct=1 / weightb=1 / open_gop=0 / weightp=2 / keyint=599 / keyint_min=59 / scenecut=40 / intra_refresh=0 / rc=crf / mbtree=0 / crf=16.0 / qcomp=0.60 / qpmin=0 / qpmax=69 / qpstep=4 / ip_ratio=1.40 / pb_ratio=1.30 / aq=1:0.90
Язык : English
Default : Да
Forced : Нет
Аудио #1
Идентификатор : 2
Формат : AC-3
Формат/Информация : Audio Coding 3
Расширение режима : CM (complete main)
Параметр Endianness формата : Big
Идентификатор кодека : A_AC3
Продолжительность : 1 ч. 52 м.
Вид битрейта : Постоянный
Битрейт : 384 Кбит/сек
Каналы : 6 каналов
Расположение каналов : Front: L C R, Side: L R, LFE
Частота : 48,0 КГц
Частота кадров : 31,250 кадров/сек (1536 spf)
Метод сжатия : С потерями
Задержка видео : 1 с. 0 мс.
Размер потока : 309 Мбайт (7%)
Заголовок : AC3 DD 5.1 @ 384 Kbps DUB - iTunes
Язык : Russian
Default : Нет
Forced : Нет
Аудио #2
Идентификатор : 3
Формат : AC-3
Формат/Информация : Audio Coding 3
Расширение режима : CM (complete main)
Параметр Endianness формата : Big
Идентификатор кодека : A_AC3
Продолжительность : 1 ч. 52 м.
Вид битрейта : Постоянный
Битрейт : 640 Кбит/сек
Каналы : 6 каналов
Расположение каналов : Front: L C R, Side: L R, LFE
Частота : 48,0 КГц
Частота кадров : 31,250 кадров/сек (1536 spf)
Метод сжатия : С потерями
Размер потока : 514 Мбайт (11%)
Заголовок : ENG
Язык : English
Default : Да
Forced : Нет
Текст #1
Идентификатор : 4
Формат : UTF-8
Идентификатор кодека : S_TEXT/UTF8
Идентификатор кодека/Информация : UTF-8 Plain Text
Продолжительность : 1 ч. 50 м.
Битрейт : 0 бит/сек
Count of elements : 3
Размер потока : 171 байт (0%)
Заголовок : Forced
Язык : Russian
Default : Да
Forced : Нет
Текст #2
Идентификатор : 5
Формат : UTF-8
Идентификатор кодека : S_TEXT/UTF8
Идентификатор кодека/Информация : UTF-8 Plain Text
Продолжительность : 1 ч. 50 м.
Битрейт : 66 бит/сек
Count of elements : 1245
Размер потока : 53,8 Кбайт (0%)
Заголовок : Full
Язык : Russian
Default : Нет
Forced : Нет
Текст #3
Идентификатор : 6
Формат : UTF-8
Идентификатор кодека : S_TEXT/UTF8
Идентификатор кодека/Информация : UTF-8 Plain Text
Продолжительность : 1 ч. 50 м.
Битрейт : 41 бит/сек
Count of elements : 1226
Размер потока : 33,3 Кбайт (0%)
Язык : English
Default : Нет
Forced : Нет
Автор поделки : dima2g

[Цитировать]
mimok

Бредовый фильм Нет слов

[Цитировать]
Kryl

5728Бредовый фильм Нет слов
Я даже не смотрел )))

[Цитировать]
Disprozy

Ребята, такие фильмы нужны для красивой картинки. Хотите смысла - смотрите Тарковского и раннего Михалкова.
 
Показать сообщения:    

Текущее время: 27-Май 18:48

Часовой пояс: UTC + 3


Вы не можете начинать темы
Вы не можете отвечать на сообщения
Вы не можете редактировать свои сообщения
Вы не можете удалять свои сообщения
Вы не можете голосовать в опросах
Вы не можете прикреплять файлы к сообщениям
Вы не можете скачивать файлы