[Цитировать]
kamikkadze

4Minute - Crazy HDTVRip (2015) 1080p | 60 fps

Информация о Клипе:
Исполнители: 4Minute
Название: Crazy
Год выпуска: 2015 г.
Жанр: Поп
Страна: Корея
Продолжительность: 3 м. 12 с.

Файл:
Формат видео: MKV
Качество видео:HDTVRip 1080p | 60fps
Видео кодек: H.264
Аудио кодек: AC3
Видео: 1920x1080 | 59.940 fps | 9754 Кбит/сек
Аудио: AC3 | 2 channels | 48 kHz |384 Кбит/сек

Автор Релиза:Kamikkadze

Отчёт MediaInfo

Видео
Идентификатор : 1
Формат : AVC
Формат/Информация : Advanced Video Codec
Профиль формата : High@L4.1
Параметр CABAC формата : Да
Параметр ReFrames формата : 4 кадра
Идентификатор кодека : V_MPEG4/ISO/AVC
Продолжительность : 3 м. 12 с.
Битрейт : 9754 Кбит/сек
Ширина : 1920 пикселей
Высота : 1080 пикселей
Соотношение сторон : 16:9
Режим частоты кадров : Постоянный
Частота кадров : 59,880 кадров/сек
Частота кадров в оригинале : 59,940 кадров/сек
Цветовое пространство : YUV
Субдискретизация насыщенности : 4:2:0
Битовая глубина : 8 бит
Тип развёртки : Прогрессивная
Бит/(Пиксели*Кадры) : 0.079
Размер потока : 224 Мбайт (94%)
Заголовок : Rip By Kamikkadze(Специально для проекта 60-fps)
Библиотека кодирования : x264 core 130 r2273 b3065e6
Настройки программы : cabac=1 / ref=4 / deblock=1:-2:-1 / analyse=0x3:0x113 / me=umh / subme=10 / psy=1 / psy_rd=1.00:0.20 / mixed_ref=1 / me_range=24 / chroma_me=1 / trellis=2 / 8x8dct=1 / cqm=0 / deadzone=21,11 / fast_pskip=0 / chroma_qp_offset=-3 / threads=6 / lookahead_threads=1 / sliced_threads=0 / nr=0 / decimate=1 / interlaced=0 / bluray_compat=0 / constrained_intra=0 / bframes=3 / b_pyramid=2 / b_adapt=2 / b_bias=0 / direct=3 / weightb=1 / open_gop=0 / weightp=2 / keyint=250 / keyint_min=25 / scenecut=40 / intra_refresh=0 / rc_lookahead=60 / rc=crf / mbtree=1 / crf=21.0 / qcomp=0.60 / qpmin=0 / qpmax=69 / qpstep=4 / vbv_maxrate=50000 / vbv_bufsize=50000 / crf_max=0.0 / nal_hrd=none / ip_ratio=1.40 / aq=1:1.00
Default : Да
Forced : Нет
Аудио
Идентификатор : 2
Формат : AC-3
Формат/Информация : Audio Coding 3
Расширение режима : CM (complete main)
Параметр Endianness формата : Big
Идентификатор кодека : A_AC3
Продолжительность : 3 м. 12 с.
Вид битрейта : Постоянный
Битрейт : 384 Кбит/сек
Каналы : 2 канала
Расположение каналов : Front: L R
Частота : 48,0 КГц
Битовая глубина : 16 бит
Метод сжатия : С потерями
Размер потока : 8,82 Мбайт (4%)
Заголовок : Rip By Kamikkadze(Специально для проекта 60-fps)
Default : Да
Forced : Нет

Скриншоты

[60-fps.org].t550.torrent
Торрент: Зарегистрирован [ 2015-03-28 22:29 ] · 38CEE50F021BDE6E22CBB43E7C0A93555B08AB

Скачать .torrent

Скачать

19 KB

Статус: проверено
Скачан: 31 раз
Поблагодарили:
Размер: 238 MB
 
Похожие Темы

Топик был перенесен из форума Temp в форум Клипы (концерты) 60fps
KRYL
 
Показать сообщения:    

Текущее время: 28-Фев 13:00

Часовой пояс: UTC + 3


Вы не можете начинать темы
Вы не можете отвечать на сообщения
Вы не можете редактировать свои сообщения
Вы не можете удалять свои сообщения
Вы не можете голосовать в опросах
Вы не можете прикреплять файлы к сообщениям
Вы можете скачивать файлы