[Цитировать]
Талямба

Фильм «Сегодня мы отправимся в ад!» Фильм- Информация
Название: 300 спартанцев
Оригинальное название: 300
Год выхода: 2007
Жанр: фэнтези, боевик, драма, военный,
Режиссер: Зак Снайдер
Сценарий: Зак Снайдер, Курт Джонстад, Майкл Гордон
Продюсер: Марк Кантон, Берни Голдманн, Джанни Нуннари
В ролях: Джерард Батлер,Майкл Фассбендер,Винсент Риган,Дэвид Уэнэм,Лина Хиди,Доминик Уэст,Том Уисдом,Эндрю Плевин,Эндрю Тирнан,Родриго Санторо
--Сюжет:
События картины повествуют о кровопролитной битве при Фермопилах в 480 году до н. э., в которой триста отважных спартанцев во главе со своим царем Леонидом преградили путь многотысячной армии персидского царя Ксеркса.
Несмотря на численный перевес персов, спартанцы продолжали упорную оборону, проявив мужество и отвагу. Их бесстрашие и героизм вдохновили всю Грецию на объединение против непобедимого врага, переломив тем самым ход Греко-персидских войн…
-- Страна: США
Продолжительность: 01:56:38

Файл
Кодек: MPEG4/ISO/AVC H.264
Формат: MKV
Качество: BDRip 1080p | 59.880 fps
Видео: 1920 x 800 (2.400) | 59.880 fps | 13,6 Мбит/сек
Аудио 1: AC3 | 5.1 | 48 kHz | 448 kbps | 16 bit | Дубляж |
Аудио 2: AC3 | 5.1 | 48 kHz | 448 kbps | 16 bit | ENG |
Субтитры: English,Russian

MedifInfo

Видео
Идентификатор : 1
Формат : AVC
Формат/Информация : Advanced Video Codec
Профиль формата : High@L4.1
Параметр CABAC формата : Да
Параметр ReFrames формата : 4 кадра
Идентификатор кодека : V_MPEG4/ISO/AVC
Продолжительность : 1 ч. 56 м.
Битрейт : 13,6 Мбит/сек
Ширина : 1920 пикселей
Высота : 800 пикселей
Соотношение сторон : 2,40:1
Режим частоты кадров : Постоянный
Частота кадров : 59,880 кадров/сек
Частота кадров в оригинале : 59,940 кадров/сек
Цветовое пространство : YUV
Субдискретизация насыщенности : 4:2:0
Битовая глубина : 8 бит
Тип развёртки : Прогрессивная
Бит/(Пиксели*Кадры) : 0.148
Размер потока : 11,1 Гбайт (91%)
Библиотека кодирования : x264 core 133 r2334 a3ac64b
Настройки программы : cabac=1 / ref=4 / deblock=1:-1:-1 / analyse=0x3:0 / me=umh / subme=9 / psy=1 / psy_rd=1.00:0.10 / mixed_ref=1 / me_range=42 / chroma_me=0 / trellis=2 / 8x8dct=1 / cqm=0 / deadzone=21,11 / fast_pskip=0 / chroma_qp_offset=-3 / threads=12 / lookahead_threads=1 / sliced_threads=0 / nr=0 / decimate=0 / interlaced=0 / bluray_compat=0 / constrained_intra=0 / bframes=5 / b_pyramid=2 / b_adapt=2 / b_bias=0 / direct=1 / weightb=1 / open_gop=0 / weightp=2 / keyint=594 / keyint_min=59 / scenecut=40 / intra_refresh=0 / rc=crf / mbtree=0 / crf=18.0 / qcomp=0.60 / qpmin=0 / qpmax=69 / qpstep=4 / ip_ratio=1.40 / pb_ratio=1.30 / aq=0
Язык : English
Default : Да
Forced : Нет
Аудио #1
Идентификатор : 2
Формат : AC-3
Формат/Информация : Audio Coding 3
Расширение режима : CM (complete main)
Параметр Endianness формата : Big
Идентификатор кодека : A_AC3
Продолжительность : 1 ч. 56 м.
Вид битрейта : Постоянный
Битрейт : 448 Кбит/сек
Каналы : 6 каналов
Расположение каналов : Front: L C R, Side: L R, LFE
Частота : 48,0 КГц
Битовая глубина : 16 бит
Метод сжатия : С потерями
Размер потока : 374 Мбайт (3%)
Заголовок : Дубляж
Язык : Russian
Default : Да
Forced : Нет
Аудио #2
Идентификатор : 3
Формат : AC-3
Формат/Информация : Audio Coding 3
Расширение режима : CM (complete main)
Параметр Endianness формата : Big
Идентификатор кодека : A_AC3
Продолжительность : 1 ч. 56 м.
Вид битрейта : Постоянный
Битрейт : 640 Кбит/сек
Каналы : 6 каналов
Расположение каналов : Front: L C R, Side: L R, LFE
Частота : 48,0 КГц
Битовая глубина : 16 бит
Метод сжатия : С потерями
Размер потока : 534 Мбайт (4%)
Заголовок : Оригинал
Язык : English
Default : Нет
Forced : Нет
Текст #1
Идентификатор : 4
Формат : UTF-8
Идентификатор кодека : S_TEXT/UTF8
Идентификатор кодека/Информация : UTF-8 Plain Text
Заголовок : Полные
Язык : Russian
Default : Нет
Forced : Нет
Текст #2
Идентификатор : 5
Формат : UTF-8
Идентификатор кодека : S_TEXT/UTF8
Идентификатор кодека/Информация : UTF-8 Plain Text
Заголовок : Полные
Язык : English
Default : Нет
Forced : Нет
Меню
00:00:00.000 : en:01. Spartan Education
00:05:16.983 : en:02. Messenger From Persia
00:10:23.289 : en:03. Sparta's Reply
00:13:16.796 : en:04. The Ephors
00:16:52.177 : en:05. The Oracle
00:19:44.349 : en:06. What Should a Free Man Do?
00:22:28.347 : en:07. With or on Your Shield
00:27:03.621 : en:08. More Soldiers Than You
00:29:16.254 : en:09. Hunters of Men's Souls
00:33:17.829 : en:10. Glorious Rain
00:35:06.771 : en:11. Fraction of the Monster
00:37:49.433 : en:12. Wall of the Dead
00:40:46.277 : en:13. Ephialtes' Request
00:44:10.314 : en:14. Hot Gates Battle
00:49:17.287 : en:15. Today No Spartan Dies
00:52:46.329 : en:16. Make Theron Your Ally
00:55:33.663 : en:17. Meeting Xerxes
01:01:40.863 : en:18. Immortals Put to the Test
01:05:20.750 : en:19. Uber Immortal's Fall
01:08:42.952 : en:20. Numbers Count for Nothing
01:12:43.192 : en:21. Blood-Drunk
01:15:50.379 : en:22. Betrayer's Bargain
01:18:38.380 : en:23. Queen's Bargain
01:22:20.936 : en:24. Prepare for Glory
01:26:43.531 : en:25. Tell Them Our Story
01:29:11.512 : en:26. Trickster in True Form
01:33:59.216 : en:27. Victory in Surrender
01:38:54.595 : en:28. Fallen Heroes
01:43:26.200 : en:29. Go Tell the Spartans
01:49:03.537 : en:30. End Credits

[Цитировать]
h2o

Низкий поклон тебе. Улыбаюсь
 
Показать сообщения:    

Текущее время: 08-Дек 08:59

Часовой пояс: UTC + 3


Вы не можете начинать темы
Вы не можете отвечать на сообщения
Вы не можете редактировать свои сообщения
Вы не можете удалять свои сообщения
Вы не можете голосовать в опросах
Вы не можете прикреплять файлы к сообщениям
Вы не можете скачивать файлы