Благодарности

Seedtank за предоставленные главы ко 2 части.

28 дней спустя

-Название: 28 дней спустя
Оригинальное название: 28 Days Later...
Год выпуска: 2002
Страна: Великобритания
Жанр: ужасы
Продолжительность: 01:53:08
Перевод: Дубляж
Субтитры: русские (Полные), английские (Полные)-Режиссер: Дэнни Бойл / Danny Boyle-В ролях: Киллиан Мёрфи (Jim), Наоми Харрис (Selena), Меган Бёрнс (Hannah), Брендан Глисон (Frank), Кристофер Экклстон (Major Henry West), Ной Хантли (Mark), Люк Мэбли (Private Clifton), Стюарт МакКуорри (Sergeant Farrell), Риччи Харнетт (Corporal Mitchell), Джуниор Ланиян (Private Bell), Санджей Рамбарут (Private Davis), Рэй Пантаки (Private Bedford)-Описание:
Группа «зеленых» экстремистов вторгается в центр исследования приматов и выпускает из секретной научной лаборатории обезьяну, зараженную вирусом неудержимой агрессии. Смертельный вирус, передающийся через кровь за считанные секунды, приводит к мгновенному заражению и, соприкасаясь с любым живым существом, превращает его в кровожадного монстра.
Через 4 недели вся Англия охвачена страшной эпидемией: многие люди эвакуируются, другие ищут безопасные места, в надежде спастись. Те, кому посчастливилось не заразиться, вместе с группой военных прячутся в заброшенном доме. Вместе им предстоит разобраться в ситуации и попытаться ее исправить...-Рейтинг

imdb.com: 7.60 (246 029)
MPAA: R - Лицам до 17 лет обязательно присутствие взрослого-Качество: BDRip 1080p / 60 FPS
Формат: MKV
Видео кодек: AVC
Аудио кодек:AC3, DTS
Видео: AVC, 1920x1040, 14000 kbps, 59,940 fps
Аудио №1: русский / AC3 / 5.1 / 48 kHz / 640 kbps / 16 bit |Дубляж|
Аудио №2: русский / AC3 / 5.1 / 48 kHz / 448 kbps / 16 bit |Многоголосый, закадровый Позитив|
Аудио №3: русский / AC3 / 5.1 / 48 kHz / 384 kbps / 16 bit |Многоголосый, закадровый Киномания|
Аудио №4: английский / AC3 / 5.1 / 48 kHz / 640 kbps / 16 bit
Аудио №5: русский / DTS / 5.1 / 48 kHz / 755 kbps / 24 bit |Дубляж|
Навигация по главам: есть- -

MI

General
Unique ID : 250446705993077361506983370432725068267 (0xBC6A47F33069C2579AE300322D7B29EB)
Complete name : A:1080p 60fps28 Дней-Недель спустя 1080p 60fps28 Дней спустя 1080p 60fps.mkv
Format : Matroska
Format version : Version 4 / Version 2
File size : 13.3 GiB
Duration : 1h 53mn
Overall bit rate : 16.9 Mbps
Encoded date : UTC 2014-10-24 13:35:58
Writing application : mkvmerge v6.9.1 ('Blue Panther') 64bit built on Apr 18 2014 18:23:38
Writing library : libebml v1.3.0 + libmatroska v1.4.1
Video
ID : 1
Format : AVC
Format/Info : Advanced Video Codec
Format profile : High@L4.1
Format settings, CABAC : Yes
Format settings, ReFrames : 4 frames
Codec ID : V_MPEG4/ISO/AVC
Duration : 1h 53mn
Bit rate : 14.0 Mbps
Width : 1 920 pixels
Height : 1 040 pixels
Display aspect ratio : 16:9
Frame rate : 59.940 fps
Color space : YUV
Chroma subsampling : 4:2:0
Bit depth : 8 bits
Scan type : Progressive
Bits/(Pixel*Frame) : 0.117
Stream size : 10.8 GiB (81%)
Writing library : x264 core 130 r2273 b3065e6
Encoding settings : cabac=1 / ref=4 / deblock=1:-1:-1 / analyse=0x3:0 / me=umh / subme=9 / psy=1 / psy_rd=1.00:0.00 / mixed_ref=1 / me_range=44 / chroma_me=0 / trellis=2 / 8x8dct=1 / cqm=0 / deadzone=21,11 / fast_pskip=0 / chroma_qp_offset=-2 / threads=12 / lookahead_threads=1 / sliced_threads=0 / nr=0 / decimate=0 / interlaced=0 / bluray_compat=0 / constrained_intra=0 / bframes=5 / b_pyramid=2 / b_adapt=2 / b_bias=0 / direct=3 / weightb=1 / open_gop=0 / weightp=2 / keyint=250 / keyint_min=59 / scenecut=40 / intra_refresh=0 / rc_lookahead=60 / rc=2pass / mbtree=1 / bitrate=14000 / ratetol=1.0 / qcomp=0.80 / qpmin=0 / qpmax=69 / qpstep=4 / cplxblur=20.0 / qblur=0.5 / ip_ratio=1.40 / aq=1:0.80
Language : English
Default : Yes
Forced : No
Audio #1
ID : 2
Format : AC-3
Format/Info : Audio Coding 3
Mode extension : CM (complete main)
Codec ID : A_AC3
Duration : 1h 53mn
Bit rate mode : Constant
Bit rate : 640 Kbps
Channel(s) : 6 channels
Channel positions : Front: L C R, Side: L R, LFE
Sampling rate : 48.0 KHz
Bit depth : 16 bits
Compression mode : Lossy
Stream size : 518 MiB (4%)
Title : Дубляж
Language : Russian
Default : Yes
Forced : No
Audio #2
ID : 3
Format : AC-3
Format/Info : Audio Coding 3
Mode extension : CM (complete main)
Codec ID : A_AC3
Duration : 1h 53mn
Bit rate mode : Constant
Bit rate : 448 Kbps
Channel(s) : 6 channels
Channel positions : Front: L C R, Side: L R, LFE
Sampling rate : 48.0 KHz
Bit depth : 16 bits
Compression mode : Lossy
Stream size : 363 MiB (3%)
Title : Многоголосый, закадровый Позитив
Language : Russian
Default : No
Forced : No
Audio #3
ID : 4
Format : AC-3
Format/Info : Audio Coding 3
Mode extension : CM (complete main)
Codec ID : A_AC3
Duration : 1h 53mn
Bit rate mode : Constant
Bit rate : 384 Kbps
Channel(s) : 6 channels
Channel positions : Front: L C R, Side: L R, LFE
Sampling rate : 48.0 KHz
Bit depth : 16 bits
Compression mode : Lossy
Stream size : 311 MiB (2%)
Title : Многоголосый, закадровый Киномания
Language : Russian
Default : No
Forced : No
Audio #4
ID : 5
Format : AC-3
Format/Info : Audio Coding 3
Mode extension : CM (complete main)
Codec ID : A_AC3
Duration : 1h 53mn
Bit rate mode : Constant
Bit rate : 640 Kbps
Channel(s) : 6 channels
Channel positions : Front: L C R, Side: L R, LFE
Sampling rate : 48.0 KHz
Bit depth : 16 bits
Compression mode : Lossy
Stream size : 518 MiB (4%)
Title : Оригинал
Language : English
Default : No
Forced : No
Audio #5
ID : 6
Format : DTS
Format/Info : Digital Theater Systems
Codec ID : A_DTS
Duration : 1h 53mn
Bit rate mode : Constant
Bit rate : 755 Kbps
Channel(s) : 6 channels
Channel positions : Front: L C R, Side: L R, LFE
Sampling rate : 48.0 KHz
Bit depth : 24 bits
Compression mode : Lossy
Stream size : 611 MiB (4%)
Title : Дубляж
Language : Russian
Default : No
Forced : No
Text #1
ID : 7
Format : UTF-8
Codec ID : S_TEXT/UTF8
Codec ID/Info : UTF-8 Plain Text
Title : Полные
Language : Russian
Default : No
Forced : No
Text #2
ID : 8
Format : UTF-8
Codec ID : S_TEXT/UTF8
Codec ID/Info : UTF-8 Plain Text
Title : Полные
Language : English
Default : No
Forced : No
Menu
00:00:00.000 : ru:Ярость
00:05:28.828 : ru:28 дней спустя
00:13:13.001 : ru:Инфицированный
00:17:42.436 : ru:Эпидемия
00:21:50.893 : ru:Мама и папа
00:26:38.847 : ru:Сосед
00:29:06.244 : ru:Единственный путь
00:32:45.463 : ru:Охранник
00:34:50.588 : ru:Фрэнк и Ханна
00:40:03.151 : ru:Ответ инфекции
00:43:01.162 : ru:В Манчестер
00:44:48.436 : ru:Путь смерти
00:47:10.536 : ru:Покупки
00:49:22.668 : ru:Молод и инфицирован
00:53:15.609 : ru:Пикник
00:56:12.202 : ru:Валиум
00:57:54.054 : ru:Плохой сон
01:01:48.330 : ru:Блокада
01:04:24.819 : ru:Капля крови
01:06:39.704 : ru:Убежище
01:10:00.530 : ru:Ответ здесь
01:13:41.167 : ru:Ужин
01:16:55.903 : ru:Атака
01:18:19.987 : ru:Обещание Веста
01:24:28.814 : ru:Палачи
01:27:40.630 : ru:Переодевание
01:29:51.595 : ru:Охота
01:33:30.730 : ru:Наедине с инфекцией
01:40:30.149 : ru:Спаситель
01:43:20.986 : ru:Последний солдат
01:44:46.155 : ru:Выжившие
01:48:05.312 : ru:Финальные титры

Скриншоты

28 недель спустя

-Название: 28 недель спустя
Оригинальное название: 28 Weeks Later
Год выпуска: 2007
Страна: Великобритания, Испания
Жанр: ужасы, фантастика, триллер
Продолжительность: 01:40:13
Перевод: Дубляж
Субтитры: русские (Полные), английские (Полные)-Режиссер: Хуан Карлос Фреснадильо / Juan Carlos Fresnadillo-В ролях: Роберт Карлайл (Don), Роуз Бирн (Scarlet), Джереми Реннер (Doyle), Имоджен Путс (Tammy), Макинтош Магглтон (Andy), Хэролд Перрино (Flynn), Идрис Эльба (Stone), Катрин МакКормак (Alice), Аманда Уокер (Sally), Шахид Ахмед (Jacob), Гарфилд Морган (Geoff), Эмили Бичем (Karen)-Описание:
Действие фильма происходит спустя шесть месяцев после того, как вирус ярости опустошил Лондон. Армия США восстановила порядок и заселяет город, который находился под карантином...-Рейтинг

imdb.com: 7.00 (177 142)
MPAA: R - Лицам до 17 лет обязательно присутствие взрослого-Качество: BDRip 1080p / 60 FPS
Формат: MKV
Видео кодек: AVC
Аудио кодек:AC3, DTS
Видео: AVC, 1920x1040, 14000 kbps, 59,940 fps
Аудио №1: русский / AC3 / 5.1 / 48 kHz / 640 kbps / 16 bit |Дубляж|
Аудио №2: английский / AC3 / 5.1 / 48 kHz / 640 kbps / 16 bit
Аудио №3: русский / DTS / 5.1 / 48 kHz / 755 kbps / 24 bit |Дубляж|
Навигация по главам: есть- -

MI

General
Unique ID : 220239591533706145535307998663566181097 (0xA5B09A38AF3FA845A2FD8FB1C9C442E9)
Complete name : A:1080p 60fps28 Дней-Недель спустя 1080p 60fps28 Недель спустя 1080p 60fps.mkv
Format : Matroska
Format version : Version 4 / Version 2
File size : 11.2 GiB
Duration : 1h 40mn
Overall bit rate : 16.0 Mbps
Encoded date : UTC 2014-10-24 16:27:18
Writing application : mkvmerge v6.9.1 ('Blue Panther') 64bit built on Apr 18 2014 18:23:38
Writing library : libebml v1.3.0 + libmatroska v1.4.1
Video
ID : 1
Format : AVC
Format/Info : Advanced Video Codec
Format profile : High@L4.1
Format settings, CABAC : Yes
Format settings, ReFrames : 4 frames
Codec ID : V_MPEG4/ISO/AVC
Duration : 1h 40mn
Bit rate : 14.0 Mbps
Width : 1 920 pixels
Height : 1 040 pixels
Display aspect ratio : 16:9
Frame rate : 59.940 fps
Color space : YUV
Chroma subsampling : 4:2:0
Bit depth : 8 bits
Scan type : Progressive
Bits/(Pixel*Frame) : 0.117
Stream size : 9.55 GiB (85%)
Writing library : x264 core 130 r2273 b3065e6
Encoding settings : cabac=1 / ref=4 / deblock=1:-1:-1 / analyse=0x3:0 / me=umh / subme=9 / psy=1 / psy_rd=1.00:0.00 / mixed_ref=1 / me_range=44 / chroma_me=0 / trellis=2 / 8x8dct=1 / cqm=0 / deadzone=21,11 / fast_pskip=0 / chroma_qp_offset=-2 / threads=12 / lookahead_threads=1 / sliced_threads=0 / nr=0 / decimate=0 / interlaced=0 / bluray_compat=0 / constrained_intra=0 / bframes=5 / b_pyramid=2 / b_adapt=2 / b_bias=0 / direct=3 / weightb=1 / open_gop=0 / weightp=2 / keyint=250 / keyint_min=59 / scenecut=40 / intra_refresh=0 / rc_lookahead=60 / rc=2pass / mbtree=1 / bitrate=14000 / ratetol=1.0 / qcomp=0.80 / qpmin=0 / qpmax=69 / qpstep=4 / cplxblur=20.0 / qblur=0.5 / ip_ratio=1.40 / aq=1:0.80
Language : English
Default : Yes
Forced : No
Audio #1
ID : 2
Format : AC-3
Format/Info : Audio Coding 3
Mode extension : CM (complete main)
Codec ID : A_AC3
Duration : 1h 40mn
Bit rate mode : Constant
Bit rate : 640 Kbps
Channel(s) : 6 channels
Channel positions : Front: L C R, Side: L R, LFE
Sampling rate : 48.0 KHz
Bit depth : 16 bits
Compression mode : Lossy
Stream size : 459 MiB (4%)
Title : Дубляж
Language : Russian
Default : Yes
Forced : No
Audio #2
ID : 3
Format : AC-3
Format/Info : Audio Coding 3
Mode extension : CM (complete main)
Codec ID : A_AC3
Duration : 1h 40mn
Bit rate mode : Constant
Bit rate : 640 Kbps
Channel(s) : 6 channels
Channel positions : Front: L C R, Side: L R, LFE
Sampling rate : 48.0 KHz
Bit depth : 16 bits
Compression mode : Lossy
Stream size : 459 MiB (4%)
Title : Оригинал
Language : English
Default : No
Forced : No
Audio #3
ID : 4
Format : DTS
Format/Info : Digital Theater Systems
Codec ID : A_DTS
Duration : 1h 40mn
Bit rate mode : Constant
Bit rate : 755 Kbps
Channel(s) : 6 channels
Channel positions : Front: L C R, Side: L R, LFE
Sampling rate : 48.0 KHz
Bit depth : 24 bits
Compression mode : Lossy
Stream size : 541 MiB (5%)
Title : Дубляж
Language : Russian
Default : No
Forced : No
Text #1
ID : 5
Format : UTF-8
Codec ID : S_TEXT/UTF8
Codec ID/Info : UTF-8 Plain Text
Title : Полные
Language : Russian
Default : No
Forced : No
Text #2
ID : 6
Format : UTF-8
Codec ID : S_TEXT/UTF8
Codec ID/Info : UTF-8 Plain Text
Title : Полные
Language : English
Default : No
Forced : No
Menu
00:00:00.000 : :00:00:00.000
00:05:34.625 : :00:05:34.625
00:08:28.007 : :00:08:28.007
00:10:51.776 : :00:10:51.776
00:13:22.635 : :00:13:22.635
00:15:28.385 : :00:15:28.385
00:18:04.166 : :00:18:04.166
00:22:12.956 : :00:22:12.956
00:25:13.720 : :00:25:13.720
00:28:26.037 : :00:28:26.037
00:32:08.051 : :00:32:08.051
00:35:04.560 : :00:35:04.560
00:39:43.589 : :00:39:43.589
00:45:54.168 : :00:45:54.168
00:48:50.510 : :00:48:50.510
00:53:01.386 : :00:53:01.386
00:55:04.259 : :00:55:04.259
00:59:22.642 : :00:59:22.642
01:04:32.785 : :01:04:32.785
01:07:26.834 : :01:07:26.834
01:13:57.683 : :01:13:57.683
01:17:00.198 : :01:17:00.198
01:19:11.955 : :01:19:11.955
01:22:37.994 : :01:22:37.994
01:25:35.296 : :01:25:35.296
01:27:46.678 : :01:27:46.678
01:29:35.870 : :01:29:35.870
01:32:38.386 : :01:32:38.386

Скриншоты

 
Показать сообщения:    

Текущее время: 10-Дек 19:35

Часовой пояс: UTC + 3


Вы не можете начинать темы
Вы не можете отвечать на сообщения
Вы не можете редактировать свои сообщения
Вы не можете удалять свои сообщения
Вы не можете голосовать в опросах
Вы не можете прикреплять файлы к сообщениям
Вы не можете скачивать файлы