1. Longevity:
    7 years
    Posts:
    2413
    Gender:
    Male
    «Будущее подвластно тем, кто управляет прошлым» Информация
    Название: 2:22
    Оригинальное название: 2:22
    Год выхода: 2017
    Жанр: Триллер
    Режиссер: Пол Карри
    Сценарий: Тодд Стейн, Нэйтан Паркер
    Продюсер: Пол Карри, Стивен Хутенски, Джоди Маттерсон
    В ролях: Тереза Палмер, Микил Хаусмен, Сэм Рид, Мейв Дермоди, Реми Хий, Симона Кэссел, Керри Армстронг, Карма Шэрон, Джон Уотерс (I), Кэти МакКоннелл
    -Сюжет:
    2:22 по полудню. Безоблачное небо внезапно озаряет мощная световая вспышка. Приборы навигации выходят из строя. Два пассажирских самолета неизбежно должны столкнуться в воздухе. В последнее мгновение опытный авиадиспетчер Дилан успевает развести маршруты, но с этой минуты его жизнь не может быть прежней. В поисках страшной правды Дилан знакомится с таинственной девушкой по имени Сара, вместе с которой он открывает зловещую тайну пересечения судеб...
    -Страна: США, Австралия
    Продолжительность: 01:39:58

    Файл
    Кодек: MPEG4/ISO/AVC/H.264
    Формат: MKV
    Качество: BDRip 720p | 60 fps
    Видео: 1280 x 536 (2.388) | 60.000 fps | 8.0 Мбит/сек
    Аудио 01: AC3 | 5.1 | 48 kHz | 384 kbps | 16 bit | Дубляж - iTunes |
    Аудио 02: AC3 | 5.1 | 48 kHz | 384 kbps | 16 bit | english |

    MedifInfo

    Видео
    Идентификатор : 1
    Формат : AVC
    Формат/Информация : Advanced Video Codec
    Профиль формата : [email protected]
    Параметр CABAC формата : Да
    Параметр ReFrames формата : 5 кадров
    Идентификатор кодека : V_MPEG4/ISO/AVC
    Продолжительность : 1 ч. 38 м.
    Битрейт : 7999 Кбит/сек
    Ширина : 1280 пикселей
    Высота : 536 пикселей
    Соотношение сторон : 2,40:1
    Режим частоты кадров : Постоянный
    Частота кадров : 59,880 кадров/сек
    Частота кадров в оригинале : 59,940 кадров/сек
    Цветовое пространство : YUV
    Субдискретизация насыщенности : 4:2:0
    Битовая глубина : 8 бит
    Тип развёртки : Прогрессивная
    Бит/(Пиксели*Кадры) : 0.195
    Размер потока : 5,39 Гбайт (89%)
    Заголовок : www.60-fps.org
    Библиотека кодирования : x264 core 148 r2744 b97ae06
    Настройки программы : cabac=1 / ref=5 / deblock=1:-3:-3 / analyse=0x3:0x113 / me=umh / subme=8 / psy=1 / psy_rd=1.00:0.25 / mixed_ref=1 / me_range=32 / chroma_me=1 / trellis=1 / 8x8dct=1 / cqm=0 / deadzone=6,6 / fast_pskip=1 / chroma_qp_offset=-4 / threads=12 / lookahead_threads=2 / sliced_threads=0 / nr=0 / decimate=0 / interlaced=0 / bluray_compat=0 / constrained_intra=0 / bframes=3 / b_pyramid=2 / b_adapt=1 / b_bias=0 / direct=3 / weightb=1 / open_gop=0 / weightp=2 / keyint=599 / keyint_min=59 / scenecut=40 / intra_refresh=0 / rc_lookahead=50 / rc=2pass / mbtree=1 / bitrate=7999 / ratetol=1.0 / qcomp=0.80 / qpmin=0 / qpmax=69 / qpstep=4 / cplxblur=20.0 / qblur=0.5 / vbv_maxrate=62500 / vbv_bufsize=78125 / nal_hrd=none / filler=0 / ip_ratio=1.10 / aq=1:0.50
    Default : Да
    Forced : Нет
    Аудио #1
    Идентификатор : 2
    Формат : AC-3
    Формат/Информация : Audio Coding 3
    Расширение режима : CM (complete main)
    Параметр Endianness формата : Big
    Идентификатор кодека : A_AC3
    Продолжительность : 1 ч. 38 м.
    Вид битрейта : Постоянный
    Битрейт : 384 Кбит/сек
    Каналы : 6 каналов
    Расположение каналов : Front: L C R, Side: L R, LFE
    Частота : 48,0 КГц
    Битовая глубина : 16 бит
    Метод сжатия : С потерями
    Размер потока : 272 Мбайт (4%)
    Заголовок : Дубляж - iTunes
    Язык : Russian
    Default : Да
    Forced : Нет
    Аудио #2
    Идентификатор : 3
    Формат : AC-3
    Формат/Информация : Audio Coding 3
    Расширение режима : CM (complete main)
    Параметр Endianness формата : Big
    Идентификатор кодека : A_AC3
    Продолжительность : 1 ч. 38 м.
    Вид битрейта : Постоянный
    Битрейт : 384 Кбит/сек
    Каналы : 6 каналов
    Расположение каналов : Front: L C R, Side: L R, LFE
    Частота : 48,0 КГц
    Битовая глубина : 16 бит
    Метод сжатия : С потерями
    Размер потока : 272 Мбайт (4%)
    Заголовок : english
    Язык : English
    Default : Нет
    Forced : Нет
    Меню
    00:00:00.000 : en:Patterns Of The Stars
    00:09:10.550 : en:Happy Birthday
    00:15:56.956 : en:Commercial Jets
    00:21:27.286 : en:A Shooting Star
    00:30:11.810 : en:Short Story
    00:40:33.431 : en:Every Little Thing Matters
    00:50:59.056 : en:I'm Sorry
    00:58:37.514 : en:Connection
    01:05:59.956 : en:We're Them
    01:15:01.497 : en:What Am I Missing?
    01:22:18.934 : en:The Clock
    01:33:00.575 : en:End Credits

    Release was prepared by 60-fps.org

  2. Longevity:
    5 years 2 months
    Posts:
    1681
    Gender:
    Male
    Чётенький замут... ! Умник
    17-Sep-2017 17:28 (after 56 minutes)


You cannot post new topics in this forum
You cannot reply to topics in this forum
You cannot edit your posts in this forum
You cannot delete your posts in this forum
You cannot vote in polls in this forum
You cannot attach files in this forum
You cannot download files in this forum