[Цитировать]
Tranch

2012 / 2012
Год выпуска: 2009
Жанр: фильм-катастрофа, фантастика, боевик, приключения
Страна: США
Производство: Columbia Pictures-Режиссер: Роланд Эммерих (Универсальный солдат, Звездные врата, День независимости, Годзилла, Патриот, Послезавтра, 10 000 лет до н.э, Аноним, Штурм Белого дома)
Продолжительность: 158 мин. / 02:38-Перевод: Профессиональный (дублированный)
В ролях: Джон Кьюсак, Аманда Пит, Чиветель Эджиофор, Тэнди Ньютон, Оливер Платт, Томас МакКарти, Вуди Харрельсон, Дэнни Гловер, Лиам Джеймс, Морган Лили
Описание: Согласно календарю индейцев Майя, в 2012 году планеты солнечной системы окажутся на одной линии друг с другом, что приведет к глобальным природным катаклизмам: сильнейшие землетрясения, цунами и извержения вулканов превратят страны и целые континенты в руины. Недавно ученые подтвердили, что этот миф может стать реальностью.

Бюджет фильма $200 000 000

Знаете ли вы, что...

Для продвижения фильма был создан шуточный видеоблог Чарли Фроста, в котором Вуди Харрельсон в образе своего персонажа рассказывает о конце света. В нём также присутствует полная версия ролика, который он по сюжету фильма показал Джексону в фургоне.-Как заявил Эммерих, среди нескольких известных и исторических сооружений мира, выбранных для того, чтобы быть уничтоженными в фильме, была и Кааба в Мекке — место, к которому обращают своё лицо мусульмане всего мира во время молитвы, и где во время хаджа совершается обряд таваф. Однако в связи с предложением Клозера, сказавшего, что он не хотел бы, чтобы против него выносилась фетва из-за фильма, Кааба была убрана из списка.-Самолёт русского олигарха «Антонов-500» — создан по образу Ан-225. Похож внешне и габаритами. Основное отличие — у Ан-225 нет заднего люка, который есть у самолёта в фильме.-Название фильма отсылает к конечной дате календаря Майя. Хотя в самом календаре нет точных указаний на дату конца света, многие религиозные и культурные течения сходились на 2012 году.-Специалисты НАСА за наибольшее количество научных неточностей и откровенных выдумок признали этот фильм самым антинаучным за последние годы.-Внимание! Дальнейший список фактов о фильме содержит спойлеры. Будьте осторожны.
Сын Джексона Кёртиса носит имя Ноа (Ной [библ.]), что в свою очередь является аллегорией на Ветхозаветное сказание о Потопе.

Ошибки в фильме

Внимание! Список ошибок в фильме может содержать спойлеры. Будьте осторожны.
В одном из показанных в фильме новостных сюжетов от декабря 2012 года сообщается об отмене XXX Олимпийских игр, которые на момент выхода данного сюжета должны были состояться (реальное время проведения Игр — с 27 июля по 12 августа 2012 года).
Автор: EXCLUSIF

Формат видео: MKV
Качество видео: BDRip 720p | 60fps
Видео кодек: x264
Аудио кодек: AC3
Видео: 1280x534; ~5042 Kbps (VBR); 59.940 fps
Аудио: [RUS]: AC-3; 448 Kbps; 48.0 KHz; 5.1 CH
Аудио 2: [ENG]: AC-3; 640 Kbps; 48.0 KHz; 5.1 CH
Субтитры: Русские (форсированные, полные) + Английские (полные)

Отчёт MediaInfo

Общее
Уникальный идентификатор : 208898674589317613134865417462883257140 (0x9D286BD89373571680E718A3420B8B34)
Полное имя : 2012 [BDRip-720p 60 FPS] .mkv
Формат : Matroska
Версия формата : Version 4 / Version 2
Размер файла : 6,90 Гбайт
Продолжительность : 2 ч. 37 м.
Общий поток : 6254 Кбит/сек
Программа кодирования : mkvmerge v6.5.0 ('Isn't she lovely') built on Oct 20 2013 12:50:05
Библиотека кодирования : libebml v1.3.0 + libmatroska v1.4.1
Видео
Идентификатор : 1
Формат : AVC
Формат/Информация : Advanced Video Codec
Профиль формата : High@L4.0
Параметр CABAC формата : Да
Параметр ReFrames формата : 8 кадров
Идентификатор кодека : V_MPEG4/ISO/AVC
Продолжительность : 2 ч. 37 м.
Битрейт : 5042 Кбит/сек
Ширина : 1280 пикселей
Высота : 534 пикселя
Соотношение сторон : 2,40:1
Режим частоты кадров : Постоянный
Частота кадров : 59,880 кадров/сек
Частота кадров в оригинале : 59,940 кадров/сек
Цветовое пространство : YUV
Субдискретизация насыщенности : 4:2:0
Битовая глубина : 8 бит
Тип развёртки : Прогрессивная
Бит/(Пиксели*Кадры) : 0.123
Размер потока : 5,56 Гбайт (81%)
Заголовок : Release by EXCLUSIF
Библиотека кодирования : x264 core 138 r2358 9e941d1
Настройки программы : cabac=1 / ref=8 / deblock=1:-3:-2 / analyse=0x3:0x133 / me=umh / subme=9 / psy=1 / psy_rd=1.00:0.00 / mixed_ref=1 / me_range=24 / chroma_me=1 / trellis=2 / 8x8dct=1 / cqm=0 / deadzone=21,11 / fast_pskip=0 / chroma_qp_offset=-2 / threads=6 / lookahead_threads=1 / sliced_threads=0 / nr=0 / decimate=0 / interlaced=0 / bluray_compat=0 / constrained_intra=0 / bframes=5 / b_pyramid=2 / b_adapt=2 / b_bias=0 / direct=3 / weightb=1 / open_gop=0 / weightp=2 / keyint=599 / keyint_min=59 / scenecut=40 / intra_refresh=0 / rc_lookahead=60 / rc=crf / mbtree=1 / crf=17.0 / qcomp=0.60 / qpmin=0 / qpmax=69 / qpstep=4 / ip_ratio=1.40 / aq=1:1.00
Язык : English
Default : Да
Forced : Нет
Аудио #1
Идентификатор : 2
Формат : AC-3
Формат/Информация : Audio Coding 3
Расширение режима : CM (complete main)
Параметр Endianness формата : Big
Идентификатор кодека : A_AC3
Продолжительность : 2 ч. 37 м.
Вид битрейта : Постоянный
Битрейт : 448 Кбит/сек
Каналы : 6 каналов
Расположение каналов : Front: L C R, Side: L R, LFE
Частота : 48,0 КГц
Битовая глубина : 16 бит
Метод сжатия : С потерями
Размер потока : 506 Мбайт (7%)
Заголовок : Rus
Язык : Russian
Default : Да
Forced : Нет
Аудио #2
Идентификатор : 3
Формат : AC-3
Формат/Информация : Audio Coding 3
Расширение режима : CM (complete main)
Параметр Endianness формата : Big
Идентификатор кодека : A_AC3
Продолжительность : 2 ч. 37 м.
Вид битрейта : Постоянный
Битрейт : 640 Кбит/сек
Каналы : 6 каналов
Расположение каналов : Front: L C R, Side: L R, LFE
Частота : 48,0 КГц
Битовая глубина : 16 бит
Метод сжатия : С потерями
Размер потока : 723 Мбайт (10%)
Заголовок : Eng
Язык : English
Default : Нет
Forced : Нет
Текст #1
Идентификатор : 4
Формат : UTF-8
Идентификатор кодека : S_TEXT/UTF8
Идентификатор кодека/Информация : UTF-8 Plain Text
Заголовок : Rus Forced
Язык : Russian
Default : Да
Forced : Да
Текст #2
Идентификатор : 5
Формат : UTF-8
Идентификатор кодека : S_TEXT/UTF8
Идентификатор кодека/Информация : UTF-8 Plain Text
Заголовок : Rus
Язык : Russian
Default : Нет
Forced : Нет
Текст #3
Идентификатор : 6
Формат : UTF-8
Идентификатор кодека : S_TEXT/UTF8
Идентификатор кодека/Информация : UTF-8 Plain Text
Заголовок : Eng
Язык : English
Default : Нет
Forced : Нет


Последний раз редактировалось: Tranch (2015-06-06 12:07), всего редактировалось 3 раз(а)

[Цитировать]
serega25

Очень хороший фильм.Спасибо

[Цитировать]
maxxximka

спасибо

[Цитировать]
drou

фильм хороший, и сюжет неплох)) а в 60фп ток круче
 
Показать сообщения:    

Текущее время: 05-Дек 05:22

Часовой пояс: UTC + 3


Вы не можете начинать темы
Вы не можете отвечать на сообщения
Вы не можете редактировать свои сообщения
Вы не можете удалять свои сообщения
Вы не можете голосовать в опросах
Вы не можете прикреплять файлы к сообщениям
Вы не можете скачивать файлы