«Трилогия Оушена» — американская трилогия режиссёра Стивена Содерберга в жанре фильм-ограбление, где на протяжении всех частей главные роли исполнили Джордж Клуни, Брэд Питт, Мэтт Деймон, Энди Гарсиа, Берни Мак, а также многие другие. В серию вошли фильмы «Одиннадцать друзей Оушена» (2001), являющийся ремейком одноимённого фильма 1960 года, а также «Двенадцать друзей Оушена» (2004) и «Тринадцать друзей Оушена» (2007).

Одиннадцать друзей Оушена / Ocean's Eleven

«Делайте ваши ставки»- Информация о фильме
Название: Одиннадцать друзей Оушена
Оригинальное название: Ocean's Eleven
Год выхода: 2001
Жанр: Триллер, криминал
Режиссер: Стивен Содерберг
Сценарий: Гарри Браун, Чарльз Ледерер, Тед Гриффин
Продюсер: Джерри Вайнтрауб, Брюс Берман, Сьюзэн Экинс
В ролях: Джордж Клуни, Брэд Питт, Мэтт Деймон, Джулия Робертс, Дон Чидл, Энди Гарсия, Берни Мак, Кейси Аффлек, Эллиот Гулд, Карл Райнер, Шаобо Куин, Эдди Джемисон, Скотт Каан
--О фильме:
После выхода из тюрьмы вора Дэнни Оушена не проходит и 24 часов, а он уже планирует организовать самое сложное ограбление казино в истории. Он хочет украсть 160 млн. американских долларов из трех самых преуспевающих казино Лас-Вегаса. Все эти казино принадлежат элегантному и в то же время жестокому дельцу Терри Бенедикту, который только и мечтает о том, как встретится с бывшей женой Дэнни Оушена — Тесс. Возможно это только совпадение? А может быть это повод?
Всего за одну ночь Дэнни подбирает команду из одиннадцати «специалистов», способных совершить эту дерзкую кражу. В команде Оушена оказываются первоклассный карточный шулер, молодой искусный вор-карманник и гениальный разрушитель. Чтобы совершить этот безумный и сложный грабеж Оушену придется рисковать своей жизнью…
- - Страна: США
Продолжительность: 01:56:34
-- Файл
Кодек: MPEG4/ISO/AVC H.264
Формат: MKV
Качество: BDRip-AVC 60fps
Видео: 1024x424 (2.40:1) | 59.940 fps | ~4.0 Мбит/сек
Аудио: AC3 | 5.1 | 48 kHz | 640 kbps | 16 bit | Дубляж |
Субтитры: Русские (Полные), английские (Полные)

MedifInfo

Video
ID : 1
Format : AVC
Format/Info : Advanced Video Codec
Format profile : High@L4.1
Format settings, CABAC : Yes
Format settings, ReFrames : 4 frames
Codec ID : V_MPEG4/ISO/AVC
Duration : 1h 56mn
Bit rate : 4 000 Kbps
Width : 1 024 pixels
Height : 424 pixels
Display aspect ratio : 2.40:1
Frame rate : 59.940 fps
Color space : YUV
Chroma subsampling : 4:2:0
Bit depth : 8 bits
Scan type : Progressive
Bits/(Pixel*Frame) : 0.154
Stream size : 3.18 GiB (84%)
Writing library : x264 core 146 r2538 121396c
Encoding settings : cabac=1 / ref=3 / deblock=1:0:0 / analyse=0x3:0x113 / me=umh / subme=9 / psy=1 / psy_rd=1.00:0.10 / mixed_ref=1 / me_range=32 / chroma_me=1 / trellis=2 / 8x8dct=1 / cqm=0 / deadzone=21,11 / fast_pskip=0 / chroma_qp_offset=-3 / threads=12 / lookahead_threads=3 / sliced_threads=0 / nr=0 / decimate=1 / interlaced=0 / bluray_compat=0 / constrained_intra=0 / bframes=16 / b_pyramid=2 / b_adapt=2 / b_bias=0 / direct=3 / weightb=1 / open_gop=0 / weightp=2 / keyint=600 / keyint_min=59 / scenecut=40 / intra_refresh=0 / rc_lookahead=40 / rc=2pass / mbtree=0 / bitrate=4000 / ratetol=1.0 / qcomp=0.60 / qpmin=0 / qpmax=69 / qpstep=4 / cplxblur=20.0 / qblur=0.5 / vbv_maxrate=50000 / vbv_bufsize=62500 / nal_hrd=none / filler=0 / ip_ratio=1.40 / pb_ratio=1.30 / aq=1:1.00
Language : English
Default : Yes
Forced : No
Audio
ID : 2
Format : AC-3
Format/Info : Audio Coding 3
Mode extension : CM (complete main)
Codec ID : A_AC3
Duration : 1h 56mn
Bit rate mode : Constant
Bit rate : 640 Kbps
Channel(s) : 6 channels
Channel positions : Front: L C R, Side: L R, LFE
Sampling rate : 48.0 KHz
Bit depth : 16 bits
Compression mode : Lossy
Stream size : 534 MiB (14%)
Title : Дубляж
Language : Russian
Default : Yes
Forced : No
Text #1
ID : 3
Format : UTF-8
Codec ID : S_TEXT/UTF8
Codec ID/Info : UTF-8 Plain Text
Title : Полные
Language : Russian
Default : No
Forced : No
Text #2
ID : 4
Format : UTF-8
Codec ID : S_TEXT/UTF8
Codec ID/Info : UTF-8 Plain Text
Title : Полные
Language : English
Default : No
Forced : No
Menu
00:00:00.000 : en:"What Would You Do if Released?"
00:02:06.960 : en:Main Titles; Seeing Ramon
00:05:10.310 : en:Poker School
00:11:16.342 : en:"What's the Target?"
00:14:27.033 : en:Lunch With Reuben
00:18:27.440 : en:The Malloy Twins; Livingston
00:20:27.560 : en:Basher; Yen
00:23:10.222 : en:Saul
00:25:57.222 : en:Linus
00:28:17.029 : en:Danny Lays Out the Plan
00:33:35.180 : en:Casino Reconnaissance
00:39:39.544 : en:Frank Buys the Vans
00:42:34.719 : en:"Tell Me About Benedict"
00:44:30.001 : en:Tess
00:48:44.755 : en:Tess and Danny Catch Up
00:54:00.904 : en:Xanadu Implosion
00:56:36.226 : en:They Need a Pinch
00:58:18.495 : en:Stealing the Pinch
01:01:52.709 : en:Danny's Out
01:04:02.505 : en:Rusty Advises Linus
01:05:27.257 : en:Fight Night
01:08:31.274 : en:The Man From the NGC
01:13:20.229 : en:Whitejack
01:16:23.579 : en:On the Inside
01:19:30.099 : en:Somebody Call a Doctor
01:22:34.616 : en:"We're Set"; Lights Out
01:25:11.606 : en:In the Vault
01:29:34.035 : en:Calling Benedict
01:33:22.597 : en:Rusty States the Terms
01:35:27.889 : en:SWAT Team Arrives
01:39:16.117 : en:Benedict Figures It Out
01:41:32.086 : en:Benedict Grills Danny
01:44:10.244 : en:"Someone's Always Watching"
01:49:12.546 : en:Liar and Thief
01:51:33.854 : en:End Titles

Двенадцать друзей Оушена / Ocean's Twelve

«Теперь их... целая дюжина»- Информация о фильме
Название: Двенадцать друзей Оушена
Оригинальное название: Ocean's Twelve
Год выхода: 2004
Жанр: Триллер, криминал
Режиссер: Стивен Содерберг
Сценарий: Джордж Нолфи, Джордж Клейтон Джонсон, Джек Голден Расселл
Продюсер: Джерри Вайнтрауб, Брюс Берман, Фредерик В. Брост
В ролях: Брэд Питт, Кэтрин Зета-Джонс, Джордж Клуни, Эд Кросс, Джулия Робертс, Дон Тиффани, Энн Жак, Дэвид Сонтэг, Ларри Сонтэг, Энди Гарсиа
--О фильме:
И снова гангстер Денни Оушен собирает свою банду профессиональных грабителей и мошенников, в которой появились и новые лица. На этот раз они задумали провернуть три ограбления в крупнейших европейских столицах. Возможно, для этого банде придется разделиться на три группы.
Тем временем владелец казино Терри Бенедикт, которого Оушен со своими приятелями обчистил в Лас-Вегасе, жаждет мести и буквально висит у них на хвосте… Он зол и пытается настигнуть банду, за которой также охотятся агенты Европола и таинственный французский конкурент по имени Диннер Джекет…
- - Страна: США
Продолжительность: 02:05:18
-- Файл
Кодек: MPEG4/ISO/AVC H.264
Формат: MKV
Качество: BDRip-AVC 60fps
Видео: 1024x424 (2.40:1) | 59.940 fps | ~3.8 Мбит/сек
Аудио: AC3 | 5.1 | 48 kHz | 640 kbps | 16 bit | Дубляж |
Субтитры: Русские (Полные), английские (Полные)

MedifInfo

Video
ID : 1
Format : AVC
Format/Info : Advanced Video Codec
Format profile : High@L4.1
Format settings, CABAC : Yes
Format settings, ReFrames : 4 frames
Codec ID : V_MPEG4/ISO/AVC
Duration : 2h 5mn
Bit rate : 3 870 Kbps
Width : 1 024 pixels
Height : 424 pixels
Display aspect ratio : 2.40:1
Frame rate : 59.940 fps
Color space : YUV
Chroma subsampling : 4:2:0
Bit depth : 8 bits
Scan type : Progressive
Bits/(Pixel*Frame) : 0.149
Stream size : 3.31 GiB (84%)
Writing library : x264 core 146 r2538 121396c
Encoding settings : cabac=1 / ref=3 / deblock=1:0:0 / analyse=0x3:0x113 / me=umh / subme=9 / psy=1 / psy_rd=1.00:0.10 / mixed_ref=1 / me_range=32 / chroma_me=1 / trellis=2 / 8x8dct=1 / cqm=0 / deadzone=21,11 / fast_pskip=0 / chroma_qp_offset=-3 / threads=12 / lookahead_threads=3 / sliced_threads=0 / nr=0 / decimate=1 / interlaced=0 / bluray_compat=0 / constrained_intra=0 / bframes=16 / b_pyramid=2 / b_adapt=2 / b_bias=0 / direct=3 / weightb=1 / open_gop=0 / weightp=2 / keyint=600 / keyint_min=59 / scenecut=40 / intra_refresh=0 / rc_lookahead=40 / rc=2pass / mbtree=0 / bitrate=3870 / ratetol=1.0 / qcomp=0.60 / qpmin=0 / qpmax=69 / qpstep=4 / cplxblur=20.0 / qblur=0.5 / vbv_maxrate=50000 / vbv_bufsize=62500 / nal_hrd=none / filler=0 / ip_ratio=1.40 / pb_ratio=1.30 / aq=1:1.00
Language : English
Default : Yes
Forced : No
Audio
ID : 2
Format : AC-3
Format/Info : Audio Coding 3
Mode extension : CM (complete main)
Codec ID : A_AC3
Duration : 2h 5mn
Bit rate mode : Constant
Bit rate : 640 Kbps
Channel(s) : 6 channels
Channel positions : Front: L C R, Side: L R, LFE
Sampling rate : 48.0 KHz
Bit depth : 16 bits
Compression mode : Lossy
Stream size : 574 MiB (14%)
Title : Дубляж
Language : Russian
Default : Yes
Forced : No
Text #1
ID : 3
Format : UTF-8
Codec ID : S_TEXT/UTF8
Codec ID/Info : UTF-8 Plain Text
Title : Полные
Language : Russian
Default : No
Forced : No
Text #2
ID : 4
Format : UTF-8
Codec ID : S_TEXT/UTF8
Codec ID/Info : UTF-8 Plain Text
Title : Полные
Language : English
Default : No
Forced : No
Menu
00:00:00.000 : en:Rusty and Isabel
00:03:07.229 : en:Mr. and Mrs. Diaz
00:08:09.823 : en:Terry Visits the Gang
00:14:52.058 : en:"You Have Two Weeks"
00:16:39.999 : en:"How Much Does Everybody Owe?"
00:22:04.490 : en:"Amsterdam It Is"
00:24:09.615 : en:Linus Meets Matsui
00:27:16.134 : en:Planning the Heist
00:30:58.523 : en:Raising the House
00:36:16.007 : en:Isabel at the Crime Scene
00:39:37.709 : en:Love at First Sight
00:41:31.989 : en:Second Place
00:45:17.548 : en:Isabel Questions Rusty
00:51:16.407 : en:Bagman's Travels
00:56:44.234 : en:The Night Fox
00:58:47.691 : en:Danny and Tolour Make a Bet
01:02:00.216 : en:Nagel Leaves a Message
01:03:33.309 : en:Rome
01:05:53.449 : en:Scouting the Museum
01:09:49.018 : en:Rusty Surprises Isabel
01:13:10.553 : en:"Andre Ciment" and Isabel
01:15:32.027 : en:Wake-Up Call
01:17:25.140 : en:Day Of
01:20:23.819 : en:Linus Takes Charge
01:22:50.966 : en:Tess to the Rescue
01:26:02.324 : en:Surprise Visit
01:30:49.444 : en:At the Museum
01:35:19.547 : en:Section Chief Molly Star
01:38:13.721 : en:Caravan
01:41:21.409 : en:Isabel's Big Decision
01:44:19.753 : en:Guests on the Veranda
01:46:35.389 : en:Laser Dance
01:48:38.512 : en:A Very Elaborate Show
01:53:47.320 : en:"Whose House Is This?"
01:57:24.537 : en:Monday Night
01:58:47.620 : en:End Titles

Тринадцать друзей Оушена / Ocean's Thirteen

«Месть - забавная штука»- Информация о фильме
Название: Тринадцать друзей Оушена
Оригинальное название: Ocean's Thirteen
Год выхода: 2007
Жанр: Триллер, криминал
Режиссер: Стивен Содерберг
Сценарий: Брайан Коппельман, Дэвид Левин, Джордж Клейтон Джонсон
Продюсер: Джерри Вайнтрауб, Брюс Берман, Фредерик В. Брост
В ролях: Брэд Питт, Джордж Клуни, Мэтт Дэймон, Майкл Мэнтелл, Эллиотт Гулд, Рэй Ксифо, Аль Пачино, Адам Лазарр-Уайт, Эдди Джемисон, Дон Чидл
--О фильме:
Новая глава о криминальных похождениях Дэнни Оушена и его команды талантливейших мошенников в Лас-Вегасе.
У Дэнни Оушена и его команды могла быть только одна причина, по которой они готовы провернуть самое амбициозное и рискованное ограбление казино в их жизни, — ради защиты одного из «своих».
Когда безжалостный владелец казино Уилли Бэнк подставляет одного из некогда одиннадцати друзей Оушена, — а именно Рубена Тишкоффа, — Дэнни и его верным соратникам ничего не остается, как вновь объединиться, чтобы проверить, по силам ли им все еще сорвать «банк».
- - Страна: США
Продолжительность: 02:02:09
-- Файл
Кодек: MPEG4/ISO/AVC H.264
Формат: MKV
Качество: BDRip-AVC 60fps
Видео: 1024x424 (2.40:1) | 59.940 fps | ~4.0 Мбит/сек
Аудио: AC3 | 5.1 | 48 kHz | 640 kbps | 16 bit | Дубляж |
Субтитры: Русские (Полные), английские (Полные)

MedifInfo

Video
ID : 1
Format : AVC
Format/Info : Advanced Video Codec
Format profile : High@L4.1
Format settings, CABAC : Yes
Format settings, ReFrames : 4 frames
Codec ID : V_MPEG4/ISO/AVC
Duration : 2h 2mn
Bit rate : 4 000 Kbps
Width : 1 024 pixels
Height : 424 pixels
Display aspect ratio : 2.40:1
Frame rate : 59.940 fps
Color space : YUV
Chroma subsampling : 4:2:0
Bit depth : 8 bits
Scan type : Progressive
Bits/(Pixel*Frame) : 0.154
Stream size : 3.33 GiB (84%)
Writing library : x264 core 146 r2538 121396c
Encoding settings : cabac=1 / ref=3 / deblock=1:0:0 / analyse=0x3:0x113 / me=umh / subme=9 / psy=1 / psy_rd=1.00:0.10 / mixed_ref=1 / me_range=32 / chroma_me=1 / trellis=2 / 8x8dct=1 / cqm=0 / deadzone=21,11 / fast_pskip=0 / chroma_qp_offset=-3 / threads=12 / lookahead_threads=3 / sliced_threads=0 / nr=0 / decimate=1 / interlaced=0 / bluray_compat=0 / constrained_intra=0 / bframes=16 / b_pyramid=2 / b_adapt=2 / b_bias=0 / direct=3 / weightb=1 / open_gop=0 / weightp=2 / keyint=600 / keyint_min=59 / scenecut=40 / intra_refresh=0 / rc_lookahead=40 / rc=2pass / mbtree=0 / bitrate=4000 / ratetol=1.0 / qcomp=0.60 / qpmin=0 / qpmax=69 / qpstep=4 / cplxblur=20.0 / qblur=0.5 / vbv_maxrate=50000 / vbv_bufsize=62500 / nal_hrd=none / filler=0 / ip_ratio=1.40 / pb_ratio=1.30 / aq=1:1.00
Language : English
Default : Yes
Forced : No
Audio
ID : 2
Format : AC-3
Format/Info : Audio Coding 3
Mode extension : CM (complete main)
Codec ID : A_AC3
Duration : 2h 2mn
Bit rate mode : Constant
Bit rate : 640 Kbps
Channel(s) : 6 channels
Channel positions : Front: L C R, Side: L R, LFE
Sampling rate : 48.0 KHz
Bit depth : 16 bits
Compression mode : Lossy
Stream size : 559 MiB (14%)
Title : Дубляж
Language : Russian
Default : Yes
Forced : No
Text #1
ID : 3
Format : UTF-8
Codec ID : S_TEXT/UTF8
Codec ID/Info : UTF-8 Plain Text
Title : Форсированные
Language : Russian
Default : Yes
Forced : No
Text #2
ID : 4
Format : UTF-8
Codec ID : S_TEXT/UTF8
Codec ID/Info : UTF-8 Plain Text
Title : Полные
Language : Russian
Default : No
Forced : No
Text #3
ID : 5
Format : UTF-8
Codec ID : S_TEXT/UTF8
Codec ID/Info : UTF-8 Plain Text
Title : Полные
Language : English
Default : No
Forced : No
Menu
00:00:00.000 : en:Anything for Reuben
00:04:42.282 : en:Willy Amends the Deal
00:07:38.458 : en:The Guys Offer Willy "A Billy Martin"
00:10:06.105 : en:Showing Nagel the Big Picture
00:13:11.958 : en:The Big Picture, Continued
00:17:26.879 : en:Fixing Blackjack, Slots, Roulette
00:21:30.122 : en:The Greco Player Tracker
00:24:26.465 : en:The Exit Strategy
00:27:42.828 : en:Rusty Does an "Irwin Allen"
00:30:36.501 : en:Prepping Room 1706; "Caravan"
00:32:38.290 : en:Kensington Chubb and the V.I.P. Check-in
00:39:01.839 : en:Livingston Explains Blackjack
00:42:08.860 : en:Complications
00:46:22.613 : en:Terry
00:49:41.645 : en:Mr. Weng and Lenny Pepperidge
00:51:43.267 : en:Yen Negotiates the Elevators
00:53:30.040 : en:Rusty and Danny Walk and Talk
00:58:10.821 : en:Oprah
01:00:49.646 : en:Finding a Way to the Diamond Room
01:07:24.207 : en:Terry and Willy: 'Nuff Said
01:10:53.749 : en:Willy Makes Preparations
01:13:31.240 : en:The Grand Opening
01:18:04.513 : en:The Gilroy
01:21:22.377 : en:"The FBI Is in the House"
01:26:11.166 : en:Blowing the Slots
01:28:35.477 : en:The Cartwheel
01:32:34.716 : en:Eugene's Trap Door
01:34:43.344 : en:First Tremor; "You Felt It, Too?"
01:37:17.165 : en:Winning Montage
01:40:58.886 : en:The Exit Strategy, Cont'd.
01:43:09.683 : en:Aftermath
01:50:20.113 : en:"This Town"
01:52:35.415 : en:Camp to Belong
01:56:37.490 : en:End Titles


Последний раз редактировалось: bot (2016-01-30 13:49), всего редактировалось 4 раз(а)

[Цитировать]
JuiceJet

Спасибо ребятки. Было бы здорово если бы вы сделали такой же релиз в 720р, но с более высоким битрейтом видео. Скажем около 7м\б. М? ))
 
Показать сообщения:    

Текущее время: 24-Май 09:08

Часовой пояс: UTC + 3


Вы не можете начинать темы
Вы не можете отвечать на сообщения
Вы не можете редактировать свои сообщения
Вы не можете удалять свои сообщения
Вы не можете голосовать в опросах
Вы не можете прикреплять файлы к сообщениям
Вы не можете скачивать файлы