[Цитировать]
Mr.West

-10 000 лет до н.э. / 10,000 BC--«Когда началась легенда» Производство: США ЮАР
Год выпуска: 2008 г.
Жанр: Фантастика, фэнтези, боевик, драма, приключения
Продолжительность: 01:48:55
Мировая премьера: 22 февраля 2008
Российская премьера: 13 марта 2008, «Каро-Премьер»
Дата выхода DVD: 9 декабря 2008, «Юниверсал Пикчерс Рус»
Дата выхода Blu-Ray: 20 января 2009, «Юниверсал Пикчерс Рус»
Перевод: Профессиональный (полное дублирование) [Лицензия]
Оригинальный аудиопоток: французский
Режиссер: Роланд Эммерих / Roland Emmerich-В ролях: Стивен Стрейт, Камилла Белль, Клифф Кёртис, Джоэль Вирджил Вирсет, Аффиф Бен Бадра, Мо Зинал, Натаниэль Баринг, Мона Хэммонд, Марко Хэнлиэн, Рис Ричи-Описание: В далеком горном племени молодой охотник Д’Лех нашел свою любовь — красотку Эволет. Но когда загадочное воинственное племя напало на деревню и похитило Эволет, Д’Леху ничего не оставалось, как возглавить небольшую группу охотников, чтобы проследовать за этими властелинами войны даже на самый край света, дабы спасти любимую.
Ведомому судьбой отряду неумелых воинов предстоит сразиться с саблезубыми тиграми и доисторическими хищниками и в конце героического путешествия найти Потерянную Цивилизацию. Судьба их целиком находится во власти империи, неподдающейся воображению, той, где великие пирамиды простираются до небес. И там они примут бой против могущественного бога, жестко поработившего их народ.-
Качество видео: BDRip
Контейнер: MKV
Стандарт разрешения: 1080p
Видео кодек: H.264
Аудио кодек: AC3
Видео: 1920x800, 14078 Кбит/сек, 59.940 кадр/сек, AVC, x264, High@L4.1, 2.40:1, 0.153 Бит/[Пиксели*Кадры], 2pass
Аудио: Rus: 48 kHz, AC3 Dolby Digital, 3/2 (L,C,R,l,r) + LFE ch, ~640 kbps Dub (Лицензия)
Аудио 2: Fre: 48 kHz, AC3 Dolby Digital, 3/2 (L,C,R,l,r) + LFE ch, ~640 kbps (Original)
Cубтитры: Rus (forced, full), Eng (full)

Media Info

General
Complete name : W:\10000.BC.(2008).BDRip.1080p.[envy].[60fps].mkv
Format : Matroska
File size : 11.6 GiB
Duration : 1h 48mn
Overall bit rate : 15.3 Mbps
Movie name : 10 000 лет до н.э.(2008).BDRip.1080p.[envy].[60fps]
Encoded date : UTC 2014-02-18 07:12:45
Writing application : mkvmerge v5.8.0 ('No Sleep / Pillow') built on Sep 2 2012 15:37:04
Writing library : libebml v1.2.3 + libmatroska v1.3.0
Video
ID : 1
Format : AVC
Format/Info : Advanced Video Codec
Format profile : High@L4.1
Format settings, CABAC : Yes
Format settings, ReFrames : 5 frames
Muxing mode : Container profile=Unknown@4.1
Codec ID : V_MPEG4/ISO/AVC
Duration : 1h 48mn
Bit rate : 14.1 Mbps
Width : 1 920 pixels
Height : 800 pixels
Display aspect ratio : 2.40:1
Frame rate : 59.940 fps
Color space : YUV
Chroma subsampling : 4:2:0
Bit depth : 8 bits
Scan type : Progressive
Bits/(Pixel*Frame) : 0.153
Stream size : 10.4 GiB (90%)
Title : 10 000 лет до н.э.(2008).BDRip.1080p.[envy].[60fps]
Writing library : x264 core 140 r2377 1ca7bb9
Encoding settings : cabac=1 / ref=5 / deblock=1:-3:-2 / analyse=0x3:0x133 / me=umh / subme=11 / psy=1 / psy_rd=1.00:0.00 / mixed_ref=1 / me_range=32 / chroma_me=1 / trellis=2 / 8x8dct=1 / cqm=0 / deadzone=21,11 / fast_pskip=0 / chroma_qp_offset=-2 / threads=12 / lookahead_threads=1 / sliced_threads=0 / nr=0 / decimate=1 / interlaced=0 / bluray_compat=0 / constrained_intra=0 / bframes=5 / b_pyramid=2 / b_adapt=2 / b_bias=0 / direct=3 / weightb=1 / open_gop=0 / weightp=2 / keyint=250 / keyint_min=25 / scenecut=40 / intra_refresh=0 / rc=2pass / mbtree=0 / bitrate=14078 / ratetol=2.0 / qcomp=0.60 / qpmin=0 / qpmax=69 / qpstep=4 / cplxblur=20.0 / qblur=0.5 / ip_ratio=1.40 / pb_ratio=1.30 / aq=1:0.90
Audio #1
ID : 2
Format : AC-3
Format/Info : Audio Coding 3
Mode extension : CM (complete main)
Codec ID : A_AC3
Duration : 1h 48mn
Bit rate mode : Constant
Bit rate : 640 Kbps
Channel(s) : 6 channels
Channel positions : Front: L C R, Side: L R, LFE
Sampling rate : 48.0 KHz
Bit depth : 16 bits
Stream size : 499 MiB (4%)
Title : Dub
Language : Russian
Audio #2
ID : 3
Format : AC-3
Format/Info : Audio Coding 3
Mode extension : CM (complete main)
Codec ID : A_AC3
Duration : 1h 48mn
Bit rate mode : Constant
Bit rate : 640 Kbps
Channel(s) : 6 channels
Channel positions : Front: L C R, Side: L R, LFE
Sampling rate : 48.0 KHz
Bit depth : 16 bits
Stream size : 499 MiB (4%)
Title : Eng
Text #1
ID : 4
Format : UTF-8
Codec ID : S_TEXT/UTF8
Codec ID/Info : UTF-8 Plain Text
Title : rus forced
Language : Russian
Text #2
ID : 5
Format : UTF-8
Codec ID : S_TEXT/UTF8
Codec ID/Info : UTF-8 Plain Text
Title : rus full
Language : Russian
Text #3
ID : 6
Format : UTF-8
Codec ID : S_TEXT/UTF8
Codec ID/Info : UTF-8 Plain Text
Title : eng full
Menu
00:00:00.000 : :Chapter 01
00:05:35.668 : :Chapter 02
00:09:46.168 : :Chapter 03
00:13:39.860 : :Chapter 04
00:17:27.254 : :Chapter 05
00:20:22.679 : :Chapter 06
00:24:48.278 : :Chapter 07
00:27:51.670 : :Chapter 08
00:30:28.827 : :Chapter 09
00:34:41.662 : :Chapter 10
00:39:04.467 : :Chapter 11
00:44:46.141 : :Chapter 12
00:47:53.495 : :Chapter 13
00:52:24.099 : :Chapter 14
00:56:56.704 : :Chapter 15
01:01:34.190 : :Chapter 16
01:06:30.736 : :Chapter 17
01:10:58.045 : :Chapter 18
01:13:46.505 : :Chapter 19
01:17:18.550 : :Chapter 20
01:19:43.528 : :Chapter 21
01:24:17.177 : :Chapter 22
01:29:54.263 : :Chapter 23
01:32:52.066 : :Chapter 24
01:35:40.985 : :Chapter 25
01:37:52.032 : :Chapter 26

Скриншоты

[Цитировать]
ENIGMA

Большое Спасибо! Овации
 
Показать сообщения:    

Текущее время: 10-Дек 19:37

Часовой пояс: UTC + 3


Вы не можете начинать темы
Вы не можете отвечать на сообщения
Вы не можете редактировать свои сообщения
Вы не можете удалять свои сообщения
Вы не можете голосовать в опросах
Вы не можете прикреплять файлы к сообщениям
Вы не можете скачивать файлы