-Название: 101 далматинец
Оригинальное название: One Hundred and One Dalmatians
Год выпуска: 1961
Страна: США
Жанр: мультфильм, приключения, семейный
Продолжительность: 01:19:16
Перевод: Дубляж
Субтитры: русские (Полные), английские (Полные)-Режиссер: Клайд Джероними / Clyde Geronimi, Хэмильтон Ласки / Hamilton Luske, Вольфганг Райтерман / Wolfgang Reitherman-В ролях: Род Тейлор (Pongo, озвучка), Дж. Пэт О’Мэлли (Jasper, озвучка), Бетти Лу Джерсон (Cruella De Vil / Miss Birdwell, озвучка), Марта Вентуорф (Nanny / Queenie / Lucy, озвучка), Бен Райт (Roger, озвучка), Кейт Бауэр (Perdita, озвучка), Дэвид Фрэнкхэм (Sgt. Tibs, озвучка), Фредерик Уорлок (Horace / Inspector Craven, озвучка), Лиза Дэвис (Anita, озвучка), Том Конуэй (Quizmaster / Collie, озвучка), Тудор Оуэн (Towser, озвучка), Джордж Пеллинг (Danny, озвучка)-Описание:
Трогательная и невероятно интригующая история поиска и спасения щенят далматинских догов, которые были похищены у своих хозяев по приказу злобной фурии, Стервеллы Де Виль.
Алчная модница задумала сшить себе пятнистый меховой наряд из шкурок бедных малюток. Однако животные, объединившись, ухитряются проучить ее.-Рейтинг

imdb.com: 7.20 (85 682)
MPAA: G - Нет возрастных ограничений-Качество: BDRip 1080p / 60 FPS
Формат: MKV
Видео кодек: AVC
Аудио кодек:AC3
Видео: AVC, 1440x1080 (4:3), 10000 kbps, 59,940 fps, 0,107 bpp
Аудио №1: русский / AC3 / 5.1 / 48 kHz / 640 kbps / 16 bit |Дубляж|
Аудио №2: английский / AC3 / 5.1 / 48 kHz / 640 kbps / 16 bit
Навигация по главам: есть- -

MI

General
Unique ID : 216009003848213978838256648457695636531 (0xA281D224FC46F3868D52387C3EB1AC33)
Complete name : A:1080p 60fps101 Далматинец 1080p 60fps.mkv
Format : Matroska
Format version : Version 4 / Version 2
File size : 6.25 GiB
Duration : 1h 19mn
Overall bit rate : 11.3 Mbps
Movie name : R.G. HD-Films by Tiberiumsun69 60fps
Encoded date : UTC 2014-12-18 15:32:24
Writing application : mkvmerge v7.4.0 ('Circles') 64bit built on Dec 12 2014 12:19:56
Writing library : libebml v1.3.0 + libmatroska v1.4.1
Attachment : Yes
Video
ID : 1
Format : AVC
Format/Info : Advanced Video Codec
Format profile : High@L4.1
Format settings, CABAC : Yes
Format settings, ReFrames : 4 frames
Codec ID : V_MPEG4/ISO/AVC
Duration : 1h 19mn
Bit rate : 10 000 Kbps
Width : 1 440 pixels
Height : 1 080 pixels
Display aspect ratio : 4:3
Frame rate : 59.940 fps
Color space : YUV
Chroma subsampling : 4:2:0
Bit depth : 8 bits
Scan type : Progressive
Bits/(Pixel*Frame) : 0.107
Stream size : 5.42 GiB (87%)
Writing library : x264 core 142 r2491 24e4fed
Encoding settings : cabac=1 / ref=4 / deblock=1:0:0 / analyse=0x3:0 / me=umh / subme=10 / psy=1 / psy_rd=0.80:0.00 / mixed_ref=1 / me_range=32 / chroma_me=0 / trellis=2 / 8x8dct=1 / cqm=0 / deadzone=21,11 / fast_pskip=0 / chroma_qp_offset=-2 / threads=12 / lookahead_threads=1 / sliced_threads=0 / nr=0 / decimate=1 / interlaced=0 / bluray_compat=0 / constrained_intra=0 / bframes=5 / b_pyramid=2 / b_adapt=2 / b_bias=0 / direct=3 / weightb=1 / open_gop=0 / weightp=2 / keyint=250 / keyint_min=59 / scenecut=40 / intra_refresh=0 / rc=2pass / mbtree=0 / bitrate=10000 / ratetol=1.0 / qcomp=0.80 / qpmin=0 / qpmax=69 / qpstep=4 / cplxblur=20.0 / qblur=0.5 / ip_ratio=1.40 / pb_ratio=1.30 / aq=1:1.00
Language : English
Default : Yes
Forced : No
Audio #1
ID : 2
Format : AC-3
Format/Info : Audio Coding 3
Mode extension : CM (complete main)
Codec ID : A_AC3
Duration : 1h 19mn
Bit rate mode : Constant
Bit rate : 640 Kbps
Channel(s) : 6 channels
Channel positions : Front: L C R, Side: L R, LFE
Sampling rate : 48.0 KHz
Bit depth : 16 bits
Compression mode : Lossy
Stream size : 363 MiB (6%)
Title : Дубляж
Language : Russian
Default : Yes
Forced : No
Audio #2
ID : 3
Format : AC-3
Format/Info : Audio Coding 3
Mode extension : CM (complete main)
Codec ID : A_AC3
Duration : 1h 19mn
Bit rate mode : Constant
Bit rate : 640 Kbps
Channel(s) : 6 channels
Channel positions : Front: L C R, Side: L R, LFE
Sampling rate : 48.0 KHz
Bit depth : 16 bits
Compression mode : Lossy
Stream size : 363 MiB (6%)
Title : Оригинал
Language : English
Default : No
Forced : No
Text #1
ID : 4
Format : UTF-8
Codec ID : S_TEXT/UTF8
Codec ID/Info : UTF-8 Plain Text
Title : Полные
Language : Russian
Default : No
Forced : No
Text #2
ID : 5
Format : UTF-8
Codec ID : S_TEXT/UTF8
Codec ID/Info : UTF-8 Plain Text
Title : Полные
Language : English
Default : No
Forced : No
Menu
00:00:00.000 : ru:01. Вступление
00:04:18.300 : ru:02. Найти друга Роджеру
00:06:31.683 : ru:03. Прогулка в парке
00:12:32.293 : ru:04. "Стервелла Де Виль"
00:16:31.866 : ru:05. Одной дикой штормовой ночью
00:22:28.472 : ru:06. Семейный вечер
00:27:21.473 : ru:07. Похитители собак
00:33:22.500 : ru:08. Сумеречное лаянье
00:37:45.263 : ru:09. Полковник
00:40:54.077 : ru:10. Новости для Понго
00:50:11.508 : ru:11. Тибс спешит на помощь
00:57:39.081 : ru:12. В безопасности на время
01:04:15.477 : ru:13. Убежище в амбаре
01:09:08.311 : ru:14. Валяние в саже
01:16:06.604 : ru:15. Праздничное настроение
01:18:44.762 : ru:16. Титры

Скриншоты

[Цитировать]
Владимир 1965

Мультики это хорошо Спасибо

[Цитировать]
Kryl

спасибо ...
 
Показать сообщения:    

Текущее время: 05-Дек 01:20

Часовой пояс: UTC + 3


Вы не можете начинать темы
Вы не можете отвечать на сообщения
Вы не можете редактировать свои сообщения
Вы не можете удалять свои сообщения
Вы не можете голосовать в опросах
Вы не можете прикреплять файлы к сообщениям
Вы не можете скачивать файлы