[Цитировать]
bonus

Фильм «This Thanksgiving, the world is going to the dogs» Фильм- Информация
Название: 101 далматинец

Оригинальное название: 101 Dalmatians

Год выхода: 1996
Жанр: комедия, приключения, семейный
Режиссер: Стивен Херек
Сценарий: Джон Хьюз, Доди Смит
Продюсер: Джон Хьюз, Рикардо Местрес, Эдвард С. Фельдман
В ролях: Гленн Клоуз, Джефф Дэниелс, Джоэли Ричардсон, Джоан Плаурайт, Хью Лори, Марк Уильямс, Джон Шрэпнел
--Сюжет:
Эта забавная история произошла в Англии на Рождество… Злодейка Круэлла Дэ Вил решает украсть ровно 101 далматинца, чтобы пополнить коллекцию своих меховых изделий. Однако она еще не представляет, что ее ждет, ведь хозяева и родители маленьких пятнистых щенков не будут сидеть сложа руки…
- Страна: США
Продолжительность: 1:43:12

Файл
Кодек: V_MPEG4/ISO/AVC H.264
Формат: MKV
Качество: BDRip 720p | 60 fps
Видео: 1272 x 536 (0.071) | 59.940 fps | 2 888 Kbps
Аудио 1: MP3 | 128 kb/s | 44.1 Hz | 1.0 ch | Дубляж |
Аудио 2: MP3 | 128 kb/s | 44.1 Hz | 1.0 ch | ENG |
Субтитры: нет

MedifInfo

Format : Matroska
Format version : Version 4 / Version 2
File size : 2.27 GiB
Duration : 1h 43mn
Overall bit rate : 3 148 Kbps
Encoded date : UTC 2016-06-08 16:44:00
Writing application : mkvmerge v9.2.0 ('Photograph') 64bit
Writing library : libebml v1.3.3 + libmatroska v1.4.4
Cover : Yes
Attachments : cover.png
Video
ID : 1
Format : AVC
Format/Info : Advanced Video Codec
Format profile : High@L3.2
Format settings, CABAC : Yes
Format settings, ReFrames : 4 frames
Codec ID : V_MPEG4/ISO/AVC
Duration : 1h 43mn
Bit rate : 2 888 Kbps
Width : 1 272 pixels
Height : 536 pixels
Display aspect ratio : 2.40:1
Frame rate mode : Constant
Frame rate : 59.940 (60000/1001) fps
Color space : YUV
Chroma subsampling : 4:2:0
Bit depth : 8 bits
Scan type : Progressive
Bits/(Pixel*Frame) : 0.071
Stream size : 2.08 GiB (92%)
Writing library : x264 core 148 r2638 7599210
Encoding settings : cabac=1 / ref=3 / deblock=1:0:0 / analyse=0x3:0x113 / me=hex / subme=7 / psy=1 / psy_rd=1.00:0.00 / mixed_ref=1 / me_range=16 / chroma_me=1 / trellis=1 / 8x8dct=1 / cqm=0 / deadzone=21,11 / fast_pskip=1 / chroma_qp_offset=-2 / threads=6 / lookahead_threads=1 / sliced_threads=0 / nr=0 / decimate=1 / interlaced=0 / bluray_compat=0 / constrained_intra=0 / bframes=3 / b_pyramid=2 / b_adapt=1 / b_bias=0 / direct=1 / weightb=1 / open_gop=0 / weightp=2 / keyint=599 / keyint_min=59 / scenecut=40 / intra_refresh=0 / rc_lookahead=40 / rc=crf / mbtree=1 / crf=18.0 / qcomp=0.60 / qpmin=0 / qpmax=69 / qpstep=4 / ip_ratio=1.40 / aq=1:1.00
Language : English
Default : No
Forced : No
Audio #1
ID : 2
Format : MPEG Audio
Format version : Version 1
Format profile : Layer 3
Codec ID : A_MPEG/L3
Codec ID/Hint : MP3
Duration : 1h 43mn
Bit rate mode : Constant
Bit rate : 128 Kbps
Channel(s) : 1 channel
Sampling rate : 44.1 KHz
Frame rate : 38.281 fps (1152 spf)
Compression mode : Lossy
Stream size : 94.5 MiB (4%)
Title : Дубляж
Writing library : LAME3.99.5
Language : Russian
Default : Yes
Forced : No
Audio #2
ID : 3
Format : MPEG Audio
Format version : Version 1
Format profile : Layer 3
Codec ID : A_MPEG/L3
Codec ID/Hint : MP3
Duration : 1h 43mn
Bit rate mode : Constant
Bit rate : 128 Kbps
Channel(s) : 1 channel
Sampling rate : 44.1 KHz
Frame rate : 38.281 fps (1152 spf)
Compression mode : Lossy
Stream size : 94.5 MiB (4%)
Title : Оригинал
Writing library : LAME3.99.5
Language : English
Default : No
Forced : No
Menu
00:00:00.000 : en:Program Start
00:00:29.000 : en:Opening Credits
00:04:50.000 : en:The Meeting
00:06:01.000 : en:Madame De Vil
00:11:26.000 : en:Love At First Sight
00:24:12.000 : en:Ready For Skinner
00:29:15.000 : en:Babies On The Way
00:33:36.000 : en:The Blessed Event
00:45:06.000 : en:Puppy Theft
00:52:50.000 : en:Sending A Message
00:56:04.000 : en:To The Rescue
00:58:12.000 : en:What Noise?
01:04:41.000 : en:Sabotage
01:05:26.000 : en:Who's That Knocking?
01:08:52.000 : en:Escape
01:13:27.000 : en:Stalling Cruella
01:19:30.000 : en:Reunion
01:25:09.000 : en:Thinking Ahead
01:27:11.000 : en:Give Me The Hat!
01:32:44.000 : en:One Smelly Ride
01:37:40.000 : en:Closing Credits

[Цитировать]
Тимур Артыков

bonus, какой программой пользуешься?
 
Показать сообщения:    

Текущее время: 07-Дек 19:26

Часовой пояс: UTC + 3


Вы не можете начинать темы
Вы не можете отвечать на сообщения
Вы не можете редактировать свои сообщения
Вы не можете удалять свои сообщения
Вы не можете голосовать в опросах
Вы не можете прикреплять файлы к сообщениям
Вы не можете скачивать файлы