007: СПЕКТР / Spectre (2015) BDRip 720p | 60 fps- Информация
Название: 007: СПЕКТР
Оригинальное название: Spectre
Год выхода: 2015
Жанр: боевик, триллер
Режиссер: Сэм Мендес
Сценарий: Джон Логан, Нил Пёрвис, Роберт Уэйд
Продюсер: Барбара Брокколи, Майкл Дж. Уилсон, Закария Алауи
В ролях: Дэниэл Крэйг, Кристоф Вальц, Леа Сейду, Рэйф Файнс, Моника Беллуччи, Бен Уишоу, Наоми Харрис, Дэйв Батиста, Эндрю Скотт, Рори Киннер
--Сюжет:

Зашифрованное послание из неизвестного источника выводит Бонда на след зловещей глобальной организации под кодовым названием СПЕКТР, в то время как М пытается спасти секретную разведывательную службу от ликвидации.
- - Страна: Великобритания, США
Продолжительность: 02:28:06

Файл
Кодек: MPEG4/ISO/AVC H.264
Формат: MKV
Качество: BDRip 720p | 60 fps
Видео: 1280x536 | 59.940 fps | 5.6 Мбит/сек
Аудио 1: AC3 | 5.1 | 48 kHz | 640 kbps | 16 bit | Дубляж |
Аудио 2: AC3 | 5.1 | 48 kHz | 448 kbps | 16 bit | ENG |
Субтитры: Русские | Полные, Английские | Полные

MedifInfo

Video
ID : 1
Format : AVC
Format/Info : Advanced Video Codec
Format profile : High@L4.1
Format settings, CABAC : Yes
Format settings, ReFrames : 9 frames
Codec ID : V_MPEG4/ISO/AVC
Duration : 2h 28mn
Bit rate : 5 638 Kbps
Width : 1 280 pixels
Height : 536 pixels
Display aspect ratio : 2.40:1
Frame rate mode : Constant
Frame rate : 59.940 (60000/1001) fps
Color space : YUV
Chroma subsampling : 4:2:0
Bit depth : 8 bits
Scan type : Progressive
Bits/(Pixel*Frame) : 0.137
Stream size : 5.83 GiB (85%)
Writing library : x264 core 146 r2538 121396c
Encoding settings : cabac=1 / ref=9 / deblock=1:0:0 / analyse=0x3:0x113 / me=umh / subme=10 / psy=1 / psy_rd=1.00:0.00 / mixed_ref=1 / me_range=24 / chroma_me=1 / trellis=2 / 8x8dct=1 / cqm=0 / deadzone=21,11 / fast_pskip=0 / chroma_qp_offset=-2 / threads=12 / lookahead_threads=1 / sliced_threads=0 / nr=0 / decimate=1 / interlaced=0 / bluray_compat=0 / constrained_intra=0 / bframes=5 / b_pyramid=2 / b_adapt=2 / b_bias=0 / direct=3 / weightb=1 / open_gop=0 / weightp=2 / keyint=250 / keyint_min=25 / scenecut=40 / intra_refresh=0 / rc_lookahead=40 / rc=crf / mbtree=0 / crf=18.0 / qcomp=0.60 / qpmin=0 / qpmax=69 / qpstep=4 / vbv_maxrate=14000 / vbv_bufsize=14000 / crf_max=0.0 / nal_hrd=none / filler=0 / ip_ratio=1.40 / pb_ratio=1.30 / aq=3:1.00
Language : English
Default : Yes
Forced : No
Audio #1
ID : 2
Format : AC-3
Format/Info : Audio Coding 3
Mode extension : CM (complete main)
Format settings, Endianness : Big
Codec ID : A_AC3
Duration : 2h 28mn
Bit rate mode : Constant
Bit rate : 448 Kbps
Channel(s) : 6 channels
Channel positions : Front: L C R, Side: L R, LFE
Sampling rate : 48.0 KHz
Frame rate : 31.250 fps (1536 spf)
Compression mode : Lossy
Stream size : 475 MiB (7%)
Title : Dub
Language : Russian
Default : Yes
Forced : No
Audio #2
ID : 3
Format : AC-3
Format/Info : Audio Coding 3
Mode extension : CM (complete main)
Format settings, Endianness : Big
Codec ID : A_AC3
Duration : 2h 28mn
Bit rate mode : Constant
Bit rate : 448 Kbps
Channel(s) : 6 channels
Channel positions : Front: L C R, Side: L R, LFE
Sampling rate : 48.0 KHz
Frame rate : 31.250 fps (1536 spf)
Compression mode : Lossy
Stream size : 475 MiB (7%)
Title : Eng
Language : English
Default : No
Forced : No
Text #1
ID : 4
Format : UTF-8
Codec ID : S_TEXT/UTF8
Codec ID/Info : UTF-8 Plain Text
Title : Rud forced
Language : Russian
Default : Yes
Forced : Yes
Text #2
ID : 5
Format : UTF-8
Codec ID : S_TEXT/UTF8
Codec ID/Info : UTF-8 Plain Text
Title : Rus full
Language : Russian
Default : No
Forced : No
Text #3
ID : 6
Format : UTF-8
Codec ID : S_TEXT/UTF8
Codec ID/Info : UTF-8 Plain Text
Title : Eng full
Language : English
Default : No
Forced : No
Menu
00:00:00.000 : en:Chapter 01
00:06:09.118 : en:Chapter 03
00:13:04.784 : en:Chapter 05
00:18:58.470 : en:Chapter 07
00:24:46.776 : en:Chapter 09
00:28:04.057 : en:Chapter 11
00:32:15.558 : en:Chapter 13
00:36:58.591 : en:Chapter 15
00:41:56.639 : en:Chapter 17
00:46:13.145 : en:Chapter 19
00:50:51.923 : en:Chapter 21
00:53:43.220 : en:Chapter 23
01:00:21.367 : en:Chapter 25
01:06:48.212 : en:Chapter 27
01:10:58.963 : en:Chapter 29
01:15:14.092 : en:Chapter 31
01:18:55.647 : en:Chapter 33
01:26:11.040 : en:Chapter 35
01:29:39.999 : en:Chapter 37
01:36:43.547 : en:Chapter 39
01:41:44.389 : en:Chapter 41
01:49:06.414 : en:Chapter 43
01:55:52.820 : en:Chapter 45
01:59:39.213 : en:Chapter 47
02:04:19.743 : en:Chapter 49
02:09:28.510 : en:Chapter 51
02:14:05.662 : en:Chapter 53
02:19:42.374 : en:Chapter 55
02:28:06.627 : en:Chapter 56

[Цитировать]
Владимир2511

Да

[Цитировать]
rthana1314

Умник Хитренький Привет

[Цитировать]
rthana1314

Love u Поцелуй

[Цитировать]
rthana1314

Hi
 
Показать сообщения:    

Текущее время: 03-Дек 16:40

Часовой пояс: UTC + 3


Вы не можете начинать темы
Вы не можете отвечать на сообщения
Вы не можете редактировать свои сообщения
Вы не можете удалять свои сообщения
Вы не можете голосовать в опросах
Вы не можете прикреплять файлы к сообщениям
Вы не можете скачивать файлы