[Цитировать]
Kryl

007: СПЕКТР / Spectre (2015) BDRip 720p | 60 fps- Информация
Название: 007: СПЕКТР
Оригинальное название: Spectre
Год выхода: 2015
Жанр: боевик, триллер
Режиссер: Сэм Мендес
Сценарий: Джон Логан, Нил Пёрвис, Роберт Уэйд
Продюсер: Барбара Брокколи, Майкл Дж. Уилсон, Закария Алауи
В ролях: Дэниэл Крэйг, Кристоф Вальц, Леа Сейду, Рэйф Файнс, Моника Беллуччи, Бен Уишоу, Наоми Харрис, Дэйв Батиста, Эндрю Скотт, Рори Киннер
--Сюжет:

Зашифрованное послание из неизвестного источника выводит Бонда на след зловещей глобальной организации под кодовым названием СПЕКТР, в то время как М пытается спасти секретную разведывательную службу от ликвидации.
- - Страна: Великобритания, США
Продолжительность: 02:28:06

Файл
Кодек: MPEG4/ISO/AVC H.264
Формат: MKV
Качество: BDRip 720p | 60 fps
Видео: 1280 x 534 (2.397) | 59.940 fps | 10.0 Мбит/сек
Аудио 1: AC3 | 2.0 | 48 kHz | 192 kbps | 16 bit | Дубляж Line |
Аудио 2: AC3 | 5.1 | 48 kHz | 640 kbps | 16 bit | М.Чадов |
Аудио 3: AC3 | 5.1 | 48 kHz | 384 kbps | 16 bit | ENG |
Субтитры: Russian, English

MedifInfo

Видео
Идентификатор : 1
Формат : AVC
Формат/Информация : Advanced Video Codec
Профиль формата : High@L4.1
Параметр CABAC формата : Да
Параметр ReFrames формата : 3 кадра
Параметр GOP формата : M=3, N=59
Идентификатор кодека : V_MPEG4/ISO/AVC
Продолжительность : 2 ч. 28 м.
Вид битрейта : Переменный
Битрейт : 9632 Кбит/сек
Максимальный битрейт : 10000 Кбит/сек
Ширина : 1280 пикселей
Высота : 534 пикселя
Соотношение сторон : 2,40:1
Режим частоты кадров : Постоянный
Частота кадров : 59,880 кадров/сек
Частота кадров в оригинале : 59,940 кадров/сек
Стандарт вещания : PAL
Цветовое пространство : YUV
Субдискретизация насыщенности : 4:2:0
Битовая глубина : 8 бит
Тип развёртки : Прогрессивная
Бит/(Пиксели*Кадры) : 0.235
Размер потока : 9,96 Гбайт (87%)
Заголовок : www.60-fps.org
Язык : English
Default : Да
Forced : Нет
Основные цвета : BT.601 NTSC
Характеристики трансфера : BT.601
Коэффициенты матрицы : BT.601
colour_range : Limited
Аудио #1
Идентификатор : 2
Формат : AC-3
Формат/Информация : Audio Coding 3
Расширение режима : CM (complete main)
Параметр Endianness формата : Big
Идентификатор кодека : A_AC3
Продолжительность : 2 ч. 28 м.
Вид битрейта : Постоянный
Битрейт : 192 Кбит/сек
Каналы : 2 канала
Расположение каналов : Front: L R
Частота : 48,0 КГц
Битовая глубина : 16 бит
Метод сжатия : С потерями
Размер потока : 203 Мбайт (2%)
Заголовок : Дубляж Line
Язык : Russian
Default : Да
Forced : Нет
Аудио #2
Идентификатор : 3
Формат : AC-3
Формат/Информация : Audio Coding 3
Расширение режима : CM (complete main)
Параметр Endianness формата : Big
Идентификатор кодека : A_AC3
Продолжительность : 2 ч. 28 м.
Вид битрейта : Постоянный
Битрейт : 640 Кбит/сек
Каналы : 6 каналов
Расположение каналов : Front: L C R, Side: L R, LFE
Частота : 48,0 КГц
Битовая глубина : 16 бит
Метод сжатия : С потерями
Размер потока : 678 Мбайт (6%)
Заголовок : М.Чадов
Язык : Russian
Default : Нет
Forced : Нет
Аудио #3
Идентификатор : 4
Формат : AC-3
Формат/Информация : Audio Coding 3
Расширение режима : CM (complete main)
Параметр Endianness формата : Big
Идентификатор кодека : A_AC3
Продолжительность : 2 ч. 28 м.
Вид битрейта : Постоянный
Битрейт : 384 Кбит/сек
Каналы : 6 каналов
Расположение каналов : Front: L C R, Side: L R, LFE
Частота : 48,0 КГц
Битовая глубина : 16 бит
Метод сжатия : С потерями
Размер потока : 407 Мбайт (3%)
Заголовок : Original
Язык : English
Default : Нет
Forced : Нет
Текст #1
Идентификатор : 5
Формат : UTF-8
Идентификатор кодека : S_TEXT/UTF8
Идентификатор кодека/Информация : UTF-8 Plain Text
Язык : English
Default : Нет
Forced : Нет
Текст #2
Идентификатор : 6
Формат : UTF-8
Идентификатор кодека : S_TEXT/UTF8
Идентификатор кодека/Информация : UTF-8 Plain Text
Заголовок : Форс
Язык : Russian
Default : Да
Forced : Да
Текст #3
Идентификатор : 7
Формат : UTF-8
Идентификатор кодека : S_TEXT/UTF8
Идентификатор кодека/Информация : UTF-8 Plain Text
Язык : Russian
Default : Нет
Forced : Нет
Текст #4
Идентификатор : 8
Формат : UTF-8
Идентификатор кодека : S_TEXT/UTF8
Идентификатор кодека/Информация : UTF-8 Plain Text
Заголовок : English-Forced
Язык : English
Default : Нет
Forced : Нет
Меню
00:00:00.000 : en:Chapter 01
00:06:09.118 : en:Chapter 03
00:13:04.784 : en:Chapter 05
00:18:58.470 : en:Chapter 07
00:24:46.776 : en:Chapter 09
00:28:04.057 : en:Chapter 11
00:32:15.558 : en:Chapter 13
00:36:58.591 : en:Chapter 15
00:41:56.639 : en:Chapter 17
00:46:13.145 : en:Chapter 19
00:50:51.923 : en:Chapter 21
00:53:43.220 : en:Chapter 23
01:00:21.367 : en:Chapter 25
01:06:48.212 : en:Chapter 27
01:10:58.963 : en:Chapter 29
01:15:14.092 : en:Chapter 31
01:18:55.647 : en:Chapter 33
01:26:11.040 : en:Chapter 35
01:29:39.999 : en:Chapter 37
01:36:43.547 : en:Chapter 39
01:41:44.389 : en:Chapter 41
01:49:06.414 : en:Chapter 43
01:55:52.820 : en:Chapter 45
01:59:39.213 : en:Chapter 47
02:04:19.743 : en:Chapter 49
02:09:28.510 : en:Chapter 51
02:14:05.662 : en:Chapter 53
02:19:42.374 : en:Chapter 55
02:28:06.627 : en:Chapter 56

Релиз подготовлен 60 - fps



Последний раз редактировалось: Kryl (2016-02-21 19:45), всего редактировалось 3 раз(а)

[Цитировать]
ENIGMA

Огромное Спасибо за труды! Овации Улыбаюсь

[Цитировать]
tonareunl

NICE Смеюсь

[Цитировать]
il 76

наверное это мелочь но актеры не те указаны.

[Цитировать]
Kryl

5021наверное это мелочь но актеры не те указаны.
Спасибо за внимательность Улыбаюсь

[Цитировать]
Тимур Артыков

Как вообще вам фильм? Интересный? Нет слов

[Цитировать]
Amune

Спасибо за фильм!

[Цитировать]
dzubakr

посмотреть не получилось. видео на camrip похоже Что же делать . или это стиль у фильма такой... Нет как древний довоенный советский фильм Улыбаюсь или я зажрался уже Танец
я бы Чадову подписал, что он закадровый.
(если плохо написал пост - модераторы, удалите его)

[Цитировать]
Kryl

dzubakr,
Источник BDRemux Грущу , хотя сейчас BDRemux полное гуавно , не знаю почему , или дело в трансфере или так снимают , вот сейчас делаю Шпионский мост тоже с BDRemux , картинка как то не радует Грущу

[Цитировать]
MinLee123

So hot ! But why don't you rip it in 1080p ? Плачу

[Цитировать]
Тимур Артыков

5031So hot ! But why don't you rip it in 1080p ? Плачу
coming soon Улыбаюсь

[Цитировать]
Kryl

Тимур Артыков,
Мне вот интересно , а что Вы будете делать фулку ???
Если нет , то на каком основание обнадёживаете людей ?
 
Показать сообщения:    

Текущее время: 23-Май 10:02

Часовой пояс: UTC + 3


Вы не можете начинать темы
Вы не можете отвечать на сообщения
Вы не можете редактировать свои сообщения
Вы не можете удалять свои сообщения
Вы не можете голосовать в опросах
Вы не можете прикреплять файлы к сообщениям
Вы не можете скачивать файлы