Стражи Галактики. Часть 2 / Guardians of the Galaxy Vol. 2 (2017) BDRip 1080p | 60 fps Форсаж 8 / The Fate of the Furious (2017) BDRip 1080p | 60 fps Джон Уик 2 / John Wick: Chapter Two (2017) BDRip 720p | 60 fps Призрак в доспехах / Ghost in the Shell (2017) BDRip 1080p | 60 fps Пираты Карибского моря: Мертвецы не рассказывают сказки / Pirates of the Caribbean: Dead Men Tell No Tales (2017) BDRip 1080p | 60 fps Форсаж 8 / The Fate of the Furious (2017) BDRip 720p | 60 fps Меч короля Артура / King Arthur: Legend of the Sword (2017) BDRip 1080p | 60 fps Чужой: Завет / Alien: Covenant (2016) BDRip 720p | 60 fps Варкрафт / Warcraft (2016) BDRip 1080p | 60 fps Доктор Стрэндж / Doctor Strange (2016) BDRip 1080p | 60 fps Чудо-женщина / Wonder Woman (2017) BDRip 1080p | 60 fps Конг: Остров черепа / Kong: Skull Island (2017) BDRip 1080p | 60 fps
  1. bot

    Стаж:
    3 года 3 месяца
    Сообщений:
    412
    Пол:
    Не указан
    «Газуй!»- Информация
    Название: Спиди Гонщик
    Оригинальное название: Speed Racer
    Год выхода: 2008
    Жанр: семейный, спорт, боевик
    Режиссер: Лилли Вачовски, Лана Вачовски
    Сценарий: Лилли Вачовски, Лана Вачовски, Тацуо Ёсида
    Продюсер: Грант Хилл, Джоэл Силвер, Лилли Вачовски
    В ролях: Эмиль Хирш, Николас Элиа, Кристина Риччи, Сьюзен Сарандон, Мелисса Холройд, Джон Гудман, Эриель Винтер, Мэттью Фокс, Скотт Портер, Джан Джанзиано, Питер Фернандез, Харви Фридман, Садао Уеда
    --Сюжет:
    Юный автогонщик Спиди стремится обрести славу, как на самом треке, так и за его пределами, на своем подобном молнии автомобиле «Мак-5».- - Страна: США, Австралия, Германия
    Продолжительность: 02:15:00

    Файл
    Кодек: MPEG4/ISO/AVC H.264
    Формат: MKV
    Качество: BDRip-AVC | 60 fps
    Видео: 1024x432 (2.35:1) | 60.000 fps | 3.7 Мбит/сек
    Аудио 1: AC3 | 5.1 | 48 kHz | 384 kbps | 16 bit | Дубляж |
    Аудио 2: AC3 | 5.1 | 48 kHz | 384 kbps | 16 bit | Украинский (Отдельно в папке)
    Аудио 3: AC3 | 5.1 | 48 kHz | 640 kbps | 16 bit | English (Separately in the folder) |
    [ Субтитры: русские (Полные), английские (Полные)

    MedifInfo

    Video
    ID : 1
    Format : AVC
    Format/Info : Advanced Video Codec
    Format profile : High@L4.1
    Format settings, CABAC : Yes
    Format settings, ReFrames : 3 frames
    Format settings, GOP : M=3, N=60
    Codec ID : V_MPEG4/ISO/AVC
    Duration : 2h 15mn
    Bit rate mode : Variable
    Bit rate : 3 736 Kbps
    Maximum bit rate : 3 830 Kbps
    Width : 1 024 pixels
    Height : 432 pixels
    Display aspect ratio : 2.35:1
    Frame rate : 60.000 fps
    Standard : NTSC
    Color space : YUV
    Chroma subsampling : 4:2:0
    Bit depth : 8 bits
    Scan type : Progressive
    Bits/(Pixel*Frame) : 0.141
    Stream size : 3.52 GiB (89%)
    Language : English
    Default : Yes
    Forced : No
    Color primaries : BT.601-6 525, BT.1358 525, BT.1700 NTSC, SMPTE 170M
    Transfer characteristics : BT.601-6 525, BT.601-6 625, BT.1358 525, BT.1358 625, BT.1700 NTSC, SMPTE 170M
    Matrix coefficients : BT.601-6 525, BT.1358 525, BT.1700 NTSC, SMPTE 170M
    Audio
    ID : 2
    Format : AC-3
    Format/Info : Audio Coding 3
    Mode extension : CM (complete main)
    Codec ID : A_AC3
    Duration : 2h 15mn
    Bit rate mode : Constant
    Bit rate : 384 Kbps
    Channel(s) : 6 channels
    Channel positions : Front: L C R, Side: L R, LFE
    Sampling rate : 48.0 KHz
    Bit depth : 16 bits
    Compression mode : Lossy
    Stream size : 371 MiB (9%)
    Title : Дубляж
    Language : Russian
    Default : Yes
    Forced : No
    Text #1
    ID : 3
    Format : UTF-8
    Codec ID : S_TEXT/UTF8
    Codec ID/Info : UTF-8 Plain Text
    Title : Полные
    Language : Russian
    Default : No
    Forced : No
    Text #2
    ID : 4
    Format : UTF-8
    Codec ID : S_TEXT/UTF8
    Codec ID/Info : UTF-8 Plain Text
    Title : Полные
    Language : English
    Default : No
    Forced : No
    Menu
    00:00:00.000 : :Chapter 1
    00:04:24.180 : :Chapter 2
    00:09:14.887 : :Chapter 3
    00:15:25.257 : :Chapter 4
    00:18:20.182 : :Chapter 5
    00:23:12.015 : :Chapter 6
    00:28:04.516 : :Chapter 7
    00:32:17.268 : :Chapter 8
    00:36:18.593 : :Chapter 9
    00:39:51.222 : :Chapter 10
    00:44:40.803 : :Chapter 11
    00:48:55.098 : :Chapter 12
    00:52:42.576 : :Chapter 13
    00:57:22.355 : :Chapter 14
    01:01:10.333 : :Chapter 15
    01:04:32.118 : :Chapter 16
    01:10:35.648 : :Chapter 17
    01:14:38.515 : :Chapter 18
    01:18:18.110 : :Chapter 19
    01:22:58.223 : :Chapter 20
    01:26:39.235 : :Chapter 21
    01:30:15.743 : :Chapter 22
    01:33:39.530 : :Chapter 23
    01:39:09.860 : :Chapter 24
    01:45:10.929 : :Chapter 25
    01:51:08.495 : :Chapter 26
    01:55:01.936 : :Chapter 27
    01:59:13.980 : :Chapter 28
    02:03:36.742 : :Chapter 29
    02:05:16.550 : :Chapter 30
    02:15:00.008 : :Chapter 31


Вы не можете начинать темы
Вы не можете отвечать на сообщения
Вы не можете редактировать свои сообщения
Вы не можете удалять свои сообщения
Вы не можете голосовать в опросах
Вы не можете прикреплять файлы к сообщениям
Вы не можете скачивать файлы