Luis Fonsi - Despacito ft. Daddy Yankee (2017) WEBRip 1080p | 60 fps Jennifer Lopez feat. Gente de Zona - Ni Tu Ni Yo (2017) WEBRip 1080p | 60 fps Taylor Swift - …Ready For It? (2017) WEBRip 1080p | 60 fps Katy Perry - Dark Horse (2014) Full HD 1080p | 60 fps Inna - Gimme Gimme (2017) Full HD 1080p | 60 fps Taylor Swift - Look What You Made Me Do (2017) WEBRip 1080p | 60 fps Serebro - В Космосе (2017) Full HD 1080p | 60 fps Britney Spears - Toxic (2004) HDTVRip 1080p | 60 fps Shakira - Chantaje ft. Maluma (2016) Full HD 1080p | 60 fps DJ Khaled feat. Rihanna & Bryson Tiller - Wild Thoughts (2017) Full HD 1080p | 60 fps Глюк'oZа feat. Artik & Asti - Пахну лишь тобой (2017) 2K | WEBRip | 60 fps Loboda - Твои Глаза (2016) WEBRip 1080p | 60 fps
  1. Стаж:
    3 года 3 месяца
    Сообщений:
    2174
    Пол:
    Мужской
     
    --Selena Gomez – The Heart Wants What It Wants (2014) Full HD 1080p | 60 fps --Информация о Клипе
    Исполнитель: Selena Gomez
    Название: The Heart Wants What It Wants
    Год выхода: 2014
    Продолжительность: 00:04:31
    О клипе:
    Взаимная любовь прекрасна. А что если у одного чувства прошли, а второй их до сих пор испытывает - в этом случае плохо двоим. Тот, кто не любит - всё время пытается скрыть своё равнодушие, а второму больно, потому что видит безразличие своей половинки. Именно об этом песня и клип поп-дивы Selena Gomez.
    -Файл
    Кодек: MPEG4/ISO/AVC/ H.264
    Формат: MKV
    Качество: Master 1080p
    Видео: 1920 x 1080 (1.778) at 59.940 fps 14.7 Мбит/сек
    Аудио 1: AC-3 | 640 Кбит/сек | 48.0 KHz | 2 channels
    Аудио 2: DTS| 1413 Кбит/сек | 48.0 KHz | 2 channels

    MI

    Видео
    Идентификатор : 1
    Формат : AVC
    Формат/Информация : Advanced Video Codec
    Профиль формата : Main@L4.2
    Параметр CABAC формата : Да
    Параметр ReFrames формата : 3 кадра
    Параметр GOP формата : M=4, N=72
    Идентификатор кодека : V_MPEG4/ISO/AVC
    Продолжительность : 4 м. 31 с.
    Битрейт : 14,7 Мбит/сек
    Ширина : 1920 пикселей
    Высота : 1080 пикселей
    Соотношение сторон : 16:9
    Режим частоты кадров : Постоянный
    Частота кадров : 59,880 кадров/сек
    Частота кадров в оригинале : 59,940 кадров/сек
    Стандарт вещания : PAL
    Цветовое пространство : YUV
    Субдискретизация насыщенности : 4:2:0
    Битовая глубина : 8 бит
    Тип развёртки : Прогрессивная
    Бит/(Пиксели*Кадры) : 0.118
    Размер потока : 474 Мбайт (86%)
    Заголовок : www.60-fps.org
    Язык : English
    Default : Да
    Forced : Нет
    Основные цвета : BT.709
    Характеристики трансфера : BT.709
    Коэффициенты матрицы : BT.709
    colour_range : Limited
    Аудио #1
    Идентификатор : 2
    Формат : AC-3
    Формат/Информация : Audio Coding 3
    Расширение режима : CM (complete main)
    Параметр Endianness формата : Big
    Идентификатор кодека : A_AC3
    Продолжительность : 4 м. 31 с.
    Вид битрейта : Постоянный
    Битрейт : 640 Кбит/сек
    Каналы : 2 канала
    Расположение каналов : Front: L R
    Частота : 48,0 КГц
    Битовая глубина : 16 бит
    Метод сжатия : С потерями
    Размер потока : 20,7 Мбайт (4%)
    Заголовок : AC3
    Язык : English
    Default : Нет
    Forced : Нет
    DURATION : 00:04:30.998000000
    NUMBER_OF_FRAMES : 25406
    NUMBER_OF_BYTES : 47864904
    _STATISTICS_WRITING_APP : mkvmerge v7.6.0 ('Garden of Dreams') 32bit built on Feb 8 2015 12:51:39
    _STATISTICS_WRITING_DATE_UTC : 2015-11-27 16:21:41
    _STATISTICS_TAGS : BPS DURATION NUMBER_OF_FRAMES NUMBER_OF_BYTES
    Аудио #2
    Идентификатор : 3
    Формат : DTS
    Формат/Информация : Digital Theater Systems
    Режим : 16
    Параметр Endianness формата : Big
    Идентификатор кодека : A_DTS
    Продолжительность : 4 м. 31 с.
    Вид битрейта : Постоянный
    Битрейт : 1413 Кбит/сек
    Каналы : 2 канала
    Расположение каналов : Front: L R
    Частота : 48,0 КГц
    Битовая глубина : 16 бит
    Метод сжатия : С потерями
    Размер потока : 45,7 Мбайт (8%)
    Заголовок : DTS
    Язык : English
    Default : Да
    Forced : Нет

    Релиз подготовлен 60 - fps

  2. Стаж:
    3 года 2 месяца
    Сообщений:
    111
    Пол:
    Мужской
     
    Вроде бы такая же раздача есть у каммикадзе. Зачем ещё раз добавлять? Лучше бы было старую на перёд поставить? Или я чём то ошибаюсь?
    27-Ноя-2015 18:40 (спустя 2 часа 7 минут)
  3. Стаж:
    3 года 3 месяца
    Сообщений:
    2174
    Пол:
    Мужской
     
    4605Вроде бы такая же раздача есть у каммикадзе. Зачем ещё раз добавлять? Лучше бы было старую на перёд поставить? Или я чём то ошибаюсь?
    Ну да .... Что то я затупил :ag: :ag: :ag:
    Тут отличается маленько , две дороги и чуть меньше вес .
    27-Ноя-2015 19:36 (спустя 55 минут)


Вы не можете начинать темы
Вы не можете отвечать на сообщения
Вы не можете редактировать свои сообщения
Вы не можете удалять свои сообщения
Вы не можете голосовать в опросах
Вы не можете прикреплять файлы к сообщениям
Вы не можете скачивать файлы