Гадкий я 3 / Despicable Me 3 (2017) BDRip 720p | 60 fps Гадкий я 3 / Despicable Me 3 (2017) BDRip 1080p | 60 fps Моана / Moana (2016) BDRip 720p | 60 fps Босс-молокосос / The Boss Baby (2017) BDRip 1080p | 60 fps Тачки 3 / Cars 3 (2017) BDRip 1080p | 60 fps Босс-молокосос / The Boss Baby (2017) BDRip 720p | 60 fps Зверопой / Sing (2016) BDRip 1080p | 60 fps Зверополис / Zootopia (2016) BDRip 1080p | 60 fps Тайная жизнь домашних животных / The Secret Life of Pets (2016) BDRip 1080p | 60 fps В поисках Дори / Finding Dory (2016) BDRip 720p | 60 fps Тролли / Trolls (2016) BDRip 720p | 60 fps Зверополис / Zootopia (2016) BDRip 720p | 60 fps
  1. bot

    Стаж:
    3 года 3 месяца
    Сообщений:
    412
    Пол:
    Не указан
    -Название: Ну, погоди! (сериал)
    Год выпуска: 1969
    Страна: СССР
    Жанр: мультфильм, комедия, семейный, приключения
    Продолжительность: ~00:09:00
    Перевод: Оригинальный-Режиссер: Вячеслав Котёночкин, Юрий Бутырин, Владимир Тарасов-В ролях: Клара Румянова (Заяц, озвучка), Анатолий Папанов (Волк, озвучка), Геннадий Хазанов (озвучка), Владимир Сошальский (Бегемот, озвучка), Игорь Христенко (озвучка)-Описание:
    Веселые приключения неразлучной парочки - хулигана Волка и смышленого Зайца. Любимые с детства сцены погонь, ссор и примирений, шутки и мелодии.-Рейтинг
    -Качество: BDRip-AVC 60fps
    Формат: MKV
    Видео кодек: AVC
    Аудио кодек:AC3
    Видео: AVC, 752x576 (4:3), 3260 kbps, 60 fps, 0,125 bpp
    Аудио: русский / AC3 / 1 / 48 kHz / 640 kbps / 16 bit
    Навигация по главам: есть-

    MI

    General
    Unique ID : 217095934610155673877550129072000791557 (0xA35327F7F1209C96B82475096C6CF405)
    Complete name : E:\Ну погоди BDRip-AVC 60fps R.G. HD-Films\Выпуск-02.mkv
    Format : Matroska
    Format version : Version 4 / Version 2
    File size : 273 MiB
    Duration : 9mn 34s
    Overall bit rate : 3 980 Kbps
    Movie name : Tiberiumsun69
    Encoded date : UTC 2015-07-07 13:14:48
    Writing application : mkvmerge v7.9.0 ('Birds') 64bit
    Writing library : libebml v1.3.1 + libmatroska v1.4.2
    Attachment : Yes
    Video
    ID : 1
    Format : AVC
    Format/Info : Advanced Video Codec
    Format profile : High@L4.1
    Format settings, CABAC : Yes
    Format settings, ReFrames : 4 frames
    Codec ID : V_MPEG4/ISO/AVC
    Duration : 9mn 34s
    Bit rate : 3 261 Kbps
    Width : 752 pixels
    Height : 576 pixels
    Display aspect ratio : 4:3
    Frame rate : 60.000 fps
    Color space : YUV
    Chroma subsampling : 4:2:0
    Bit depth : 8 bits
    Scan type : Progressive
    Bits/(Pixel*Frame) : 0.125
    Stream size : 223 MiB (82%)
    Language : English
    Default : Yes
    Forced : No
    Audio
    ID : 2
    Format : AC-3
    Format/Info : Audio Coding 3
    Mode extension : CM (complete main)
    Codec ID : A_AC3
    Duration : 9mn 34s
    Bit rate mode : Constant
    Bit rate : 640 Kbps
    Channel(s) : 1 channel
    Channel positions : Front: C
    Sampling rate : 48.0 KHz
    Bit depth : 16 bits
    Compression mode : Lossy
    Delay relative to video : 14ms
    Stream size : 43.9 MiB (16%)
    Title : Оригинал
    Language : Russian
    Default : No
    Forced : No
    Menu
    00:00:00.000 : en:Chapter 2
    00:09:31.670 : en:Chapter 3

    Скриншоты

  2. Стаж:
    2 года 10 месяцев
    Сообщений:
    1
    Пол:
    Не указан
     
    Однако мне нравится 4-ый скриншот :ag:


Вы не можете начинать темы
Вы не можете отвечать на сообщения
Вы не можете редактировать свои сообщения
Вы не можете удалять свои сообщения
Вы не можете голосовать в опросах
Вы не можете прикреплять файлы к сообщениям
Вы не можете скачивать файлы