Стражи Галактики. Часть 2 / Guardians of the Galaxy Vol. 2 (2017) BDRip 1080p | 60 fps Форсаж 8 / The Fate of the Furious (2017) BDRip 1080p | 60 fps Джон Уик 2 / John Wick: Chapter Two (2017) BDRip 720p | 60 fps Призрак в доспехах / Ghost in the Shell (2017) BDRip 1080p | 60 fps Пираты Карибского моря: Мертвецы не рассказывают сказки / Pirates of the Caribbean: Dead Men Tell No Tales (2017) BDRip 1080p | 60 fps Форсаж 8 / The Fate of the Furious (2017) BDRip 720p | 60 fps Меч короля Артура / King Arthur: Legend of the Sword (2017) BDRip 1080p | 60 fps Чужой: Завет / Alien: Covenant (2016) BDRip 720p | 60 fps Варкрафт / Warcraft (2016) BDRip 1080p | 60 fps Доктор Стрэндж / Doctor Strange (2016) BDRip 1080p | 60 fps Чудо-женщина / Wonder Woman (2017) BDRip 1080p | 60 fps Конг: Остров черепа / Kong: Skull Island (2017) BDRip 1080p | 60 fps
  1. bot

    Стаж:
    3 года 3 месяца
    Сообщений:
    412
    Пол:
    Не указан
    «Был никем - стал героем»- Информация
    Название: Маска
    Оригинальное название: The Mask
    Год выхода: 1994
    Жанр: фэнтези, комедия
    Режиссер: Чак Рассел
    Сценарий: Майк Уэрб, Майкл Фэллон, Марк Верхайден
    Продюсер: Анн Бюргюн, Майкл Де Лука, Роберт Энгелман
    В ролях: Джим Кэрри, Питер Ригерт, Кэмерон Диас, Эми Ясбек, Орестес Матасена, Тим Бэгли, Ричард Джени, Питер Грин
    --Сюжет:

    Скромный, застенчивый служащий банка закомплексован настолько, что чувствует себя неуверенно с красивыми девушками. Волею судьбы к нему попадает волшебная маска, и Стенли Ипкис приобретает способность превращаться в неуязвимое мультяшное существо из забавных комиксов.
    Он становится супергероем, готовым бороться с преступностью, как Бэтмен. Итак, днем он по-прежнему скромный и незадачливый служащий, а по ночам — супермен…
    - - Страна: США
    Продолжительность: 01:41:12

    Файл
    Кодек: MPEG4/ISO/AVC H.264
    Формат: MKV
    Качество: BDRip-AVC | 60 fps
    Видео: 1024x574 (16:9) | 59.940 fps | 4.8 Мбит/сек
    Аудио 01: AC3 | 5.1 | 48 kHz | 448 kbps | 16 bit | (MVO) R5 |
    Субтитры: русские (Форсированные), русские (Полные R5), русские (Полные Ray), русские (Полные Subzero), английские (Полные)

    Audio отдельно

    Аудио 02: AC3 | 5.1 | 48 kHz | 640 kbps | 16 bit | (MVO) Киномания (Отдельно в папке) |
    Аудио 03: AC3 | 5.1 | 48 kHz | 384 kbps | 16 bit | (MVO) Латышев и люди (Отдельно в папке) |
    Аудио 04: AC3 | 2.0 | 48 kHz | 192 kbps | 16 bit | (MVO) НТВ+(Отдельно в папке) |
    Аудио 05: AC3 | 2.0 | 48 kHz | 192 kbps | 16 bit | (MVO) НТВ, THT, Рен ТВ (Отдельно в папке) |
    Аудио 06: AC3 | 2.0 | 48 kHz | 192 kbps | 16 bit | (MVO) TV1000 (Отдельно в папке) |
    Аудио 07: AC3 | 1.0 | 48 kHz | 192 kbps | 16 bit | (MVO) Премьер Видео фильм (Отдельно в папке) |
    Аудио 08: AC3 | 5.1 | 48 kHz | 640 kbps | 16 bit | (DVO) Superbit (Отдельно в папке) |
    Аудио 09: AC3 | 5.1 | 48 kHz | 640 kbps | 16 bit | (AVO) В. Горчаков (Отдельно в папке) |
    Аудио 10: AC3 | 5.1 | 48 kHz | 640 kbps | 16 bit | (AVO) П. Санаев (Отдельно в папке) |
    Аудио 11: AC3 | 5.1 | 48 kHz | 640 kbps | 16 bit | (AVO) Ю. Живов (Отдельно в папке) |
    Аудио 12: AC3 | 5.1 | 48 kHz | 384 kbps | 16 bit | (AVO) CDV (Отдельно в папке) |
    Аудио 13: AC3 | 5.1 | 48 kHz | 448 kbps | 16 bit | (VO) Б. Федоров (Отдельно в папке) |
    Аудио 14: AC3 | 2.0 | 48 kHz | 256 kbps | 16 bit | (VO) Женщина (Отдельно в папке) |
    Аудио 15: AC3 | 1.0 | 48 kHz | 192 kbps | 16 bit | (VO) Мужчина (Отдельно в папке) |
    Аудио 16: AC3 | 2.0 | 48 kHz | 096 kbps | 16 bit | (VO) Перевод ком. Чака Рассела (Отдельно в папке) |
    Аудио 17: AC3 | 2.0 | 48 kHz | 096 kbps | 16 bit | (VO) Перевод ком. Реж. и продюс. (Отдельно в папке) |
    Аудио 18: AC3 | 2.0 | 48 kHz | 192 kbps | 16 bit | (MVO) Многоголосый, закадровый (Отдельно в папке) |
    Аудио 19: AC3 | 5.1 | 48 kHz | 640 kbps | 16 bit | ENG |
    Аудио 20: AC3 | 2.0 | 48 kHz | 192 kbps | 16 bit | (Commentary) Чак Рассел (Отдельно в папке) |
    Аудио 21: AC3 | 2.0 | 48 kHz | 192 kbps | 16 bit | (Commentary) Реж. и продюссеры (Отдельно в папке) |

    MedifInfo

    Video
    ID : 1
    Format : AVC
    Format/Info : Advanced Video Codec
    Format profile : High@L4.1
    Format settings, CABAC : Yes
    Format settings, ReFrames : 3 frames
    Format settings, GOP : M=3, N=60
    Codec ID : V_MPEG4/ISO/AVC
    Duration : 1h 41mn
    Bit rate mode : Variable
    Bit rate : 4 883 Kbps
    Maximum bit rate : 5 000 Kbps
    Width : 1 024 pixels
    Height : 574 pixels
    Display aspect ratio : 16:9
    Frame rate : 60.000 fps
    Standard : NTSC
    Color space : YUV
    Chroma subsampling : 4:2:0
    Bit depth : 8 bits
    Scan type : Progressive
    Bits/(Pixel*Frame) : 0.138
    Stream size : 3.45 GiB (90%)
    Language : English
    Default : Yes
    Forced : No
    Color primaries : BT.601-6 525, BT.1358 525, BT.1700 NTSC, SMPTE 170M
    Transfer characteristics : BT.601-6 525, BT.601-6 625, BT.1358 525, BT.1358 625, BT.1700 NTSC, SMPTE 170M
    Matrix coefficients : BT.601-6 525, BT.1358 525, BT.1700 NTSC, SMPTE 170M
    Audio
    ID : 2
    Format : AC-3
    Format/Info : Audio Coding 3
    Mode extension : CM (complete main)
    Codec ID : A_AC3
    Duration : 1h 41mn
    Bit rate mode : Constant
    Bit rate : 448 Kbps
    Channel(s) : 6 channels
    Channel positions : Front: L C R, Side: L R, LFE
    Sampling rate : 48.0 KHz
    Bit depth : 16 bits
    Compression mode : Lossy
    Stream size : 324 MiB (8%)
    Title : MVO R5
    Language : Russian
    Default : Yes
    Forced : No
    Text #1
    ID : 3
    Format : UTF-8
    Codec ID : S_TEXT/UTF8
    Codec ID/Info : UTF-8 Plain Text
    Title : Форсированные
    Language : Russian
    Default : Yes
    Forced : No
    Text #2
    ID : 4
    Format : UTF-8
    Codec ID : S_TEXT/UTF8
    Codec ID/Info : UTF-8 Plain Text
    Title : Полные R5
    Language : Russian
    Default : No
    Forced : No
    Text #3
    ID : 5
    Format : UTF-8
    Codec ID : S_TEXT/UTF8
    Codec ID/Info : UTF-8 Plain Text
    Title : Полные Ray
    Language : Russian
    Default : No
    Forced : No
    Text #4
    ID : 6
    Format : UTF-8
    Codec ID : S_TEXT/UTF8
    Codec ID/Info : UTF-8 Plain Text
    Title : Полные Subzero
    Language : Russian
    Default : No
    Forced : No
    Text #5
    ID : 7
    Format : UTF-8
    Codec ID : S_TEXT/UTF8
    Codec ID/Info : UTF-8 Plain Text
    Title : Полные
    Language : English
    Default : No
    Forced : No
    Menu
    00:00:00.000 : en:Main Titles/the Nicest Guy
    00:03:38.301 : en:Tina Carlyle
    00:07:05.216 : en:The Loaner
    00:09:28.651 : en:Congo Bongo Club
    00:12:17.987 : en:The Mask
    00:14:55.728 : en:A Big Nothing
    00:17:48.567 : en:Smokin!
    00:22:56.292 : en:Next Morning
    00:26:35.010 : en:Peggy Brandt
    00:30:34.583 : en:Golf Practice
    00:33:57.327 : en:Somebody Stop Me
    00:37:28.538 : en:Baby Ain't I Good to You
    00:39:43.214 : en:Rock This Joint
    00:42:54.572 : en:Award Winning
    00:46:03.010 : en:Kellaway
    00:48:35.037 : en:50 Grand
    00:52:56.423 : en:Loki
    00:55:49.680 : en:Landfill Park
    01:00:47.269 : en:Cuban Pete
    01:04:04.674 : en:What a Rush!
    01:09:00.678 : en:Love-Crazy Wild Man
    01:16:01.140 : en:Milo to the Rescue
    01:19:52.579 : en:Casino Nite
    01:26:11.792 : en:Milo and the Mask
    01:28:49.699 : en:Spicy Meatball
    01:32:59.657 : en:Smokin!/End Credits


Вы не можете начинать темы
Вы не можете отвечать на сообщения
Вы не можете редактировать свои сообщения
Вы не можете удалять свои сообщения
Вы не можете голосовать в опросах
Вы не можете прикреплять файлы к сообщениям
Вы не можете скачивать файлы