Валериан и город тысячи планет / Valerian and the City of a Thousand Planets (2017) BDRip 1080p | 60 fps Аватар / Avatar (2009) BDRip 1080p | 60 fps Дюнкерк / Dunkirk (2017) BDRip 1080p | IMAX | 60 fps Стражи Галактики. Часть 2 / Guardians of the Galaxy Vol. 2 (2017) BDRip 1080p | 60 fps Валериан и город тысячи планет / Valerian and the City of a Thousand Planets (2017) BDRip 720p | 60 fps Интерстеллар / Interstellar (2014) BDRip 1080p | IMAX Edition | 60fps Властелин колец: Трилогия / The Lord of the Rings: Trilogy (2001-2003) BDRip-AVC | Extended Cut | 60 fps Чудо-женщина / Wonder Woman (2017) BDRip 1080p | 60 fps Человек-паук: Возвращение домой / Spider-Man: Homecoming (2017) BDRip 1080p | 60 fps Пираты Карибского моря: Мертвецы не рассказывают сказки / Pirates of the Caribbean: Dead Men Tell No Tales (2017) BDRip 1080p | 60 fps Оно / It (2017) BDRip 1080p | 60 fps Дюнкерк / Dunkirk (2017) BDRip 720p | IMAX | 60 fps
  1. Стаж:
    3 года 3 месяца
    Сообщений:
    2174
    Пол:
    Мужской
     
    «Настоящая сила не может быть дана, она может быть взята...»- Информация о фильме
    Название: Крестный отец
    Оригинальное название: The Godfather
    Год выхода: 1972
    Жанр: Триллер, Драма, Криминал
    Режиссер: Френсис Форд Коппола
    Сценарий: Марио Пьюзо, Френсис Форд Коппола
    Продюсер: Альберт С. Радди, Грэй Фредериксон, Роберт Эванс
    В ролях: Марлон Брандо, Аль Пачино, Джеймс Каан, Роберт Дювалл, Ричард С. Кастеллано, Дайан Китон, Талия Шайр, Джон Казале, Аль Леттьери, Стерлинг Хейден
    --О фильме:
    Криминальная сага, повествующая о нью-йоркской сицилийской мафиозной семье Корлеоне. Фильм охватывает период 1945-1955 годов.
    Глава семьи, Дон Вито Корлеоне, выдаёт замуж свою дочь. В это время со Второй мировой войны возвращается его любимый сын Майкл. Майкл, герой войны, гордость семьи, не выражает желания заняться жестоким семейным бизнесом. Дон Корлеоне ведёт дела по старым правилам, но наступают иные времена, и появляются люди, желающие изменить сложившиеся порядки. На Дона Корлеоне совершается покушение.
    - - Страна: США
    Продолжительность: 02:57:09
    -- Файл
    Кодек: MPEG4/ISO/AVC H.264
    Формат: MKV
    Качество: BDRip 720p
    Видео: 1280 x 720 (1.778) | at 59,940 fps | 10.0 Мбит/сек
    Субтитры: Русские, английские

    АУДИО

    Аудио 1: AC3 | 5.1 | 48 kHz | 384 kbps | 16 bit | Дубляж |
    Аудио 2: AC3 | 5.1 | 48 kHz | 448 kbps | 16 bit | Профессиональный многоголосый (R5) |
    Аудио 3: AC3 | 5.1 | 48 kHz | 448 kbps | 16 bit | Профессиональный многоголосый (Киномания) |
    Аудио 4: AC3 | 2.0 | 48 kHz | 192 kbps | 16 bit | Профессиональный двухголосый (Премьер-Видео) |
    Аудио 5: AC3 | 5.1 | 48 kHz | 448 kbps | 16 bit | Авторский одноголосый (Ю.Живов) |
    Аудио 6: AC3 | 5.1 | 48 kHz | 448 kbps | 16 bit | Авторский одноголосый (А.Михалев) |
    Аудио 7: AC3 | 5.1 | 48 kHz | 448 kbps | 16 bit | Авторский одноголосый (К.Филонов) |
    Аудио 8: AC3 | 5.1 | 48 kHz | 448 kbps | 16 bit | Авторский одноголосый (Г.Либергал) |
    Аудио 9: AC3 | 5.1 | 48 kHz | 448 kbps | 16 bit | Авторский одноголосый (Ю.Сербин) |
    Аудио 10: AC3 | 2.0 | 48 kHz | 192 kbps | 16 bit | Авторский одноголосый (Л.Володарский) |
    Аудио 11: AC3 | 5.1 | 48 kHz | 448 kbps | 16 bit | Профессиональный двухголосый |
    Аудио 12: AC3 | 5.1 | 48 kHz | 448 kbps | 16 bit | Профессиональный многоголосый (Кравец) |
    Аудио 13: AC3 | 5.1 | 48 kHz | 448 kbps | 16 bit | Профессиональный многоголосый (Медиакомплекс) |
    Аудио 14: AC3 | 2.0 | 48 kHz | 192 kbps | 16 bit | Профессиональный многоголосый (ОРТ) |
    Аудио 15: AC3 | 2.0 | 48 kHz | 192 kbps | 16 bit | Профессиональный многоголосый (Первый канал) |
    Аудио 16: AC3 | 5.1 | 48 kHz | 384 kbps | 16 bit | Профессиональный многоголосый (Позитив-Мультимедиа) |
    Аудио 17: AC3 | 5.1 | 48 kHz | 448 kbps | 16 bit | Профессиональный многоголосый (С.Р.И.) |
    Аудио 18: AC3 | 2.0 | 48 kHz | 192 kbps | 16 bit | Профессиональный многоголосый (ТВ-Центр) |
    Аудио 19: AC3 | 2.0 | 48 kHz | 192 kbps | 16 bit | Украинский
    Аудио 20: AC3 | 5.1 | 48 kHz | 448 kbps | 16 bit | ENG |

    MediaInfo

    Видео
    Идентификатор : 1
    Формат : AVC
    Формат/Информация : Advanced Video Codec
    Профиль формата : High@L4.1
    Параметр CABAC формата : Да
    Параметр ReFrames формата : 8 кадров
    Идентификатор кодека : V_MPEG4/ISO/AVC
    Продолжительность : 2 ч. 57 м.
    Битрейт : 9999 Кбит/сек
    Ширина : 1280 пикселей
    Высота : 720 пикселей
    Соотношение сторон : 16:9
    Режим частоты кадров : Постоянный
    Частота кадров : 59,880 кадров/сек
    Частота кадров в оригинале : 59,940 кадров/сек
    Цветовое пространство : YUV
    Субдискретизация насыщенности : 4:2:0
    Битовая глубина : 8 бит
    Тип развёртки : Прогрессивная
    Бит/(Пиксели*Кадры) : 0.181
    Размер потока : 11,9 Гбайт (56%)
    Заголовок : www.60-fps.org
    Библиотека кодирования : x264 core 146 r2538 121396c
    Настройки программы : cabac=1 / ref=8 / deblock=1:-2:-2 / analyse=0x3:0x133 / me=esa / subme=9 / psy=1 / psy_rd=1.00:0.25 / mixed_ref=1 / me_range=32 / chroma_me=1 / trellis=2 / 8x8dct=1 / cqm=0 / deadzone=6,6 / fast_pskip=1 / chroma_qp_offset=-4 / threads=12 / lookahead_threads=1 / sliced_threads=0 / nr=0 / decimate=0 / interlaced=0 / bluray_compat=0 / constrained_intra=0 / bframes=3 / b_pyramid=2 / b_adapt=2 / b_bias=0 / direct=3 / weightb=1 / open_gop=0 / weightp=2 / keyint=599 / keyint_min=59 / scenecut=40 / intra_refresh=0 / rc_lookahead=60 / rc=2pass / mbtree=1 / bitrate=9999 / ratetol=1.0 / qcomp=0.80 / qpmin=0 / qpmax=69 / qpstep=4 / cplxblur=20.0 / qblur=0.5 / vbv_maxrate=62500 / vbv_bufsize=78125 / nal_hrd=none / filler=0 / ip_ratio=1.10 / aq=1:0.50
    Default : Да
    Forced : Нет
    Аудио #1
    Идентификатор : 2
    Формат : AC-3
    Формат/Информация : Audio Coding 3
    Расширение режима : CM (complete main)
    Параметр Endianness формата : Big
    Идентификатор кодека : A_AC3
    Продолжительность : 2 ч. 57 м.
    Вид битрейта : Постоянный
    Битрейт : 384 Кбит/сек
    Каналы : 6 каналов
    Расположение каналов : Front: L C R, Side: L R, LFE
    Частота : 48,0 КГц
    Битовая глубина : 16 бит
    Метод сжатия : С потерями
    Размер потока : 487 Мбайт (2%)
    Заголовок : Дублированный
    Язык : Russian
    Default : Да
    Forced : Нет
    Аудио #2
    Идентификатор : 3
    Формат : AC-3
    Формат/Информация : Audio Coding 3
    Расширение режима : CM (complete main)
    Параметр Endianness формата : Big
    Идентификатор кодека : A_AC3
    Продолжительность : 2 ч. 57 м.
    Вид битрейта : Постоянный
    Битрейт : 448 Кбит/сек
    Каналы : 6 каналов
    Расположение каналов : Front: L C R, Side: L R, LFE
    Частота : 48,0 КГц
    Битовая глубина : 16 бит
    Метод сжатия : С потерями
    Размер потока : 568 Мбайт (3%)
    Заголовок : Профессиональный многоголосый (R5)
    Язык : Russian
    Default : Нет
    Forced : Нет
    Аудио #3
    Идентификатор : 4
    Формат : AC-3
    Формат/Информация : Audio Coding 3
    Расширение режима : CM (complete main)
    Параметр Endianness формата : Big
    Идентификатор кодека : A_AC3
    Продолжительность : 2 ч. 57 м.
    Вид битрейта : Постоянный
    Битрейт : 448 Кбит/сек
    Каналы : 6 каналов
    Расположение каналов : Front: L C R, Side: L R, LFE
    Частота : 48,0 КГц
    Битовая глубина : 16 бит
    Метод сжатия : С потерями
    Размер потока : 568 Мбайт (3%)
    Заголовок : Профессиональный многоголосый (Киномания)
    Язык : Russian
    Default : Нет
    Forced : Нет
    Аудио #4
    Идентификатор : 5
    Формат : AC-3
    Формат/Информация : Audio Coding 3
    Расширение режима : CM (complete main)
    Параметр Endianness формата : Big
    Идентификатор кодека : A_AC3
    Продолжительность : 2 ч. 57 м.
    Вид битрейта : Постоянный
    Битрейт : 192 Кбит/сек
    Каналы : 2 канала
    Расположение каналов : Front: L R
    Частота : 48,0 КГц
    Битовая глубина : 16 бит
    Метод сжатия : С потерями
    Размер потока : 243 Мбайт (1%)
    Заголовок : Профессиональный двухголосый (Премьер-Видео)
    Язык : Russian
    Default : Нет
    Forced : Нет
    Аудио #5
    Идентификатор : 6
    Формат : AC-3
    Формат/Информация : Audio Coding 3
    Расширение режима : CM (complete main)
    Параметр Endianness формата : Big
    Идентификатор кодека : A_AC3
    Продолжительность : 2 ч. 57 м.
    Вид битрейта : Постоянный
    Битрейт : 448 Кбит/сек
    Каналы : 6 каналов
    Расположение каналов : Front: L C R, Side: L R, LFE
    Частота : 48,0 КГц
    Битовая глубина : 16 бит
    Метод сжатия : С потерями
    Размер потока : 568 Мбайт (3%)
    Заголовок : Авторский одноголосый (Ю.Живов)
    Язык : Russian
    Default : Нет
    Forced : Нет
    Аудио #6
    Идентификатор : 7
    Формат : AC-3
    Формат/Информация : Audio Coding 3
    Расширение режима : CM (complete main)
    Параметр Endianness формата : Big
    Идентификатор кодека : A_AC3
    Продолжительность : 2 ч. 57 м.
    Вид битрейта : Постоянный
    Битрейт : 448 Кбит/сек
    Каналы : 6 каналов
    Расположение каналов : Front: L C R, Side: L R, LFE
    Частота : 48,0 КГц
    Битовая глубина : 16 бит
    Метод сжатия : С потерями
    Размер потока : 568 Мбайт (3%)
    Заголовок : Авторский одноголосый (А.Михалев)
    Язык : Russian
    Default : Нет
    Forced : Нет
    Аудио #7
    Идентификатор : 8
    Формат : AC-3
    Формат/Информация : Audio Coding 3
    Расширение режима : CM (complete main)
    Параметр Endianness формата : Big
    Идентификатор кодека : A_AC3
    Продолжительность : 2 ч. 57 м.
    Вид битрейта : Постоянный
    Битрейт : 448 Кбит/сек
    Каналы : 6 каналов
    Расположение каналов : Front: L C R, Side: L R, LFE
    Частота : 48,0 КГц
    Битовая глубина : 16 бит
    Метод сжатия : С потерями
    Размер потока : 568 Мбайт (3%)
    Заголовок : Авторский одноголосый (К.Филонов)
    Default : Нет
    Forced : Нет
    Аудио #8
    Идентификатор : 9
    Формат : AC-3
    Формат/Информация : Audio Coding 3
    Расширение режима : CM (complete main)
    Параметр Endianness формата : Big
    Идентификатор кодека : A_AC3
    Продолжительность : 2 ч. 57 м.
    Вид битрейта : Постоянный
    Битрейт : 448 Кбит/сек
    Каналы : 6 каналов
    Расположение каналов : Front: L C R, Side: L R, LFE
    Частота : 48,0 КГц
    Битовая глубина : 16 бит
    Метод сжатия : С потерями
    Размер потока : 568 Мбайт (3%)
    Заголовок : Авторский одноголосый (Г.Либергал)
    Default : Нет
    Forced : Нет
    Аудио #9
    Идентификатор : 10
    Формат : AC-3
    Формат/Информация : Audio Coding 3
    Расширение режима : CM (complete main)
    Параметр Endianness формата : Big
    Идентификатор кодека : A_AC3
    Продолжительность : 2 ч. 57 м.
    Вид битрейта : Постоянный
    Битрейт : 448 Кбит/сек
    Каналы : 6 каналов
    Расположение каналов : Front: L C R, Side: L R, LFE
    Частота : 48,0 КГц
    Битовая глубина : 16 бит
    Метод сжатия : С потерями
    Размер потока : 568 Мбайт (3%)
    Заголовок : Авторский одноголосый (Ю.Сербин)
    Default : Нет
    Forced : Нет
    Аудио #10
    Идентификатор : 11
    Формат : AC-3
    Формат/Информация : Audio Coding 3
    Расширение режима : CM (complete main)
    Параметр Endianness формата : Big
    Идентификатор кодека : A_AC3
    Продолжительность : 2 ч. 57 м.
    Вид битрейта : Постоянный
    Битрейт : 192 Кбит/сек
    Каналы : 2 канала
    Расположение каналов : Front: L R
    Частота : 48,0 КГц
    Битовая глубина : 16 бит
    Метод сжатия : С потерями
    Размер потока : 243 Мбайт (1%)
    Заголовок : Авторский одноголосый (Л.Володарский)
    Default : Нет
    Forced : Нет
    Аудио #11
    Идентификатор : 12
    Формат : AC-3
    Формат/Информация : Audio Coding 3
    Расширение режима : CM (complete main)
    Параметр Endianness формата : Big
    Идентификатор кодека : A_AC3
    Продолжительность : 2 ч. 57 м.
    Вид битрейта : Постоянный
    Битрейт : 448 Кбит/сек
    Каналы : 6 каналов
    Расположение каналов : Front: L C R, Side: L R, LFE
    Частота : 48,0 КГц
    Битовая глубина : 16 бит
    Метод сжатия : С потерями
    Размер потока : 568 Мбайт (3%)
    Заголовок : Профессиональный двухголосый
    Default : Нет
    Forced : Нет
    Аудио #12
    Идентификатор : 13
    Формат : AC-3
    Формат/Информация : Audio Coding 3
    Расширение режима : CM (complete main)
    Параметр Endianness формата : Big
    Идентификатор кодека : A_AC3
    Продолжительность : 2 ч. 57 м.
    Вид битрейта : Постоянный
    Битрейт : 448 Кбит/сек
    Каналы : 6 каналов
    Расположение каналов : Front: L C R, Side: L R, LFE
    Частота : 48,0 КГц
    Битовая глубина : 16 бит
    Метод сжатия : С потерями
    Размер потока : 568 Мбайт (3%)
    Заголовок : Профессиональный многоголосый (Кравец)
    Default : Нет
    Forced : Нет
    Аудио #13
    Идентификатор : 14
    Формат : AC-3
    Формат/Информация : Audio Coding 3
    Расширение режима : CM (complete main)
    Параметр Endianness формата : Big
    Идентификатор кодека : A_AC3
    Продолжительность : 2 ч. 57 м.
    Вид битрейта : Постоянный
    Битрейт : 448 Кбит/сек
    Каналы : 6 каналов
    Расположение каналов : Front: L C R, Side: L R, LFE
    Частота : 48,0 КГц
    Битовая глубина : 16 бит
    Метод сжатия : С потерями
    Размер потока : 568 Мбайт (3%)
    Заголовок : Профессиональный многоголосый (Медиакомплекс)
    Default : Нет
    Forced : Нет
    Аудио #14
    Идентификатор : 15
    Формат : AC-3
    Формат/Информация : Audio Coding 3
    Расширение режима : CM (complete main)
    Параметр Endianness формата : Big
    Идентификатор кодека : A_AC3
    Продолжительность : 2 ч. 57 м.
    Вид битрейта : Постоянный
    Битрейт : 192 Кбит/сек
    Каналы : 2 канала
    Расположение каналов : Front: L R
    Частота : 48,0 КГц
    Битовая глубина : 16 бит
    Метод сжатия : С потерями
    Размер потока : 243 Мбайт (1%)
    Заголовок : Профессиональный многоголосый (ОРТ)
    Default : Нет
    Forced : Нет
    Аудио #15
    Идентификатор : 16
    Формат : AC-3
    Формат/Информация : Audio Coding 3
    Расширение режима : CM (complete main)
    Параметр Endianness формата : Big
    Идентификатор кодека : A_AC3
    Продолжительность : 2 ч. 57 м.
    Вид битрейта : Постоянный
    Битрейт : 192 Кбит/сек
    Каналы : 2 канала
    Расположение каналов : Front: L R
    Частота : 48,0 КГц
    Битовая глубина : 16 бит
    Метод сжатия : С потерями
    Размер потока : 243 Мбайт (1%)
    Заголовок : Профессиональный многоголосый (Первый канал)
    Default : Нет
    Forced : Нет
    Аудио #16
    Идентификатор : 17
    Формат : AC-3
    Формат/Информация : Audio Coding 3
    Расширение режима : CM (complete main)
    Параметр Endianness формата : Big
    Идентификатор кодека : A_AC3
    Продолжительность : 2 ч. 57 м.
    Вид битрейта : Постоянный
    Битрейт : 384 Кбит/сек
    Каналы : 6 каналов
    Расположение каналов : Front: L C R, Side: L R, LFE
    Частота : 48,0 КГц
    Битовая глубина : 16 бит
    Метод сжатия : С потерями
    Размер потока : 487 Мбайт (2%)
    Заголовок : Профессиональный многоголосый (Позитив-Мультимедиа)
    Default : Нет
    Forced : Нет
    Аудио #17
    Идентификатор : 18
    Формат : AC-3
    Формат/Информация : Audio Coding 3
    Расширение режима : CM (complete main)
    Параметр Endianness формата : Big
    Идентификатор кодека : A_AC3
    Продолжительность : 2 ч. 57 м.
    Вид битрейта : Постоянный
    Битрейт : 448 Кбит/сек
    Каналы : 6 каналов
    Расположение каналов : Front: L C R, Side: L R, LFE
    Частота : 48,0 КГц
    Битовая глубина : 16 бит
    Метод сжатия : С потерями
    Размер потока : 568 Мбайт (3%)
    Заголовок : Профессиональный многоголосый (С.Р.И.)
    Default : Нет
    Forced : Нет
    Аудио #18
    Идентификатор : 19
    Формат : AC-3
    Формат/Информация : Audio Coding 3
    Расширение режима : CM (complete main)
    Параметр Endianness формата : Big
    Идентификатор кодека : A_AC3
    Продолжительность : 2 ч. 57 м.
    Вид битрейта : Постоянный
    Битрейт : 192 Кбит/сек
    Каналы : 2 канала
    Расположение каналов : Front: L R
    Частота : 48,0 КГц
    Битовая глубина : 16 бит
    Метод сжатия : С потерями
    Размер потока : 243 Мбайт (1%)
    Заголовок : Профессиональный многоголосый (ТВ-Центр)
    Default : Нет
    Forced : Нет
    Аудио #19
    Идентификатор : 20
    Формат : AC-3
    Формат/Информация : Audio Coding 3
    Расширение режима : CM (complete main)
    Параметр Endianness формата : Big
    Идентификатор кодека : A_AC3
    Продолжительность : 2 ч. 57 м.
    Вид битрейта : Постоянный
    Битрейт : 192 Кбит/сек
    Каналы : 2 канала
    Расположение каналов : Front: L R
    Частота : 48,0 КГц
    Битовая глубина : 16 бит
    Метод сжатия : С потерями
    Размер потока : 243 Мбайт (1%)
    Заголовок : Украинский
    Default : Нет
    Forced : Нет
    Аудио #20
    Идентификатор : 21
    Формат : AC-3
    Формат/Информация : Audio Coding 3
    Расширение режима : CM (complete main)
    Параметр Endianness формата : Big
    Идентификатор кодека : A_AC3
    Продолжительность : 2 ч. 57 м.
    Вид битрейта : Постоянный
    Битрейт : 448 Кбит/сек
    Каналы : 6 каналов
    Расположение каналов : Front: L C R, Side: L R, LFE
    Частота : 48,0 КГц
    Битовая глубина : 16 бит
    Метод сжатия : С потерями
    Размер потока : 568 Мбайт (3%)
    Заголовок : Оригинал
    Язык : English
    Default : Нет
    Forced : Нет
    Текст #1
    Идентификатор : 22
    Формат : UTF-8
    Идентификатор кодека : S_TEXT/UTF8
    Идентификатор кодека/Информация : UTF-8 Plain Text
    Заголовок : на итальянскую речь
    Язык : Russian
    Default : Да
    Forced : Нет
    Текст #2
    Идентификатор : 23
    Формат : UTF-8
    Идентификатор кодека : S_TEXT/UTF8
    Идентификатор кодека/Информация : UTF-8 Plain Text
    Заголовок : на итальянскую речь для многоголоски R5
    Язык : Russian
    Default : Нет
    Forced : Нет
    Текст #3
    Идентификатор : 24
    Формат : UTF-8
    Идентификатор кодека : S_TEXT/UTF8
    Идентификатор кодека/Информация : UTF-8 Plain Text
    Заголовок : Киномания
    Язык : Russian
    Default : Нет
    Forced : Нет
    Текст #4
    Идентификатор : 25
    Формат : UTF-8
    Идентификатор кодека : S_TEXT/UTF8
    Идентификатор кодека/Информация : UTF-8 Plain Text
    Заголовок : Позитив
    Язык : Russian
    Default : Нет
    Forced : Нет
    Текст #5
    Идентификатор : 26
    Формат : UTF-8
    Идентификатор кодека : S_TEXT/UTF8
    Идентификатор кодека/Информация : UTF-8 Plain Text
    Язык : English
    Default : Нет
    Forced : Нет
    Текст #6
    Идентификатор : 27
    Формат : UTF-8
    Идентификатор кодека : S_TEXT/UTF8
    Идентификатор кодека/Информация : UTF-8 Plain Text
    Заголовок : SDH
    Язык : English
    Default : Нет
    Forced : Нет
    Меню
    00:00:00.000 : en:00:00:00.000
    00:07:30.784 : en:00:07:30.784
    00:18:03.624 : en:00:18:03.624
    00:27:03.455 : en:00:27:03.455
    00:34:20.183 : en:00:34:20.183
    00:40:17.749 : en:00:40:17.749
    00:48:52.304 : en:00:48:52.304
    00:58:18.328 : en:00:58:18.328
    01:08:44.579 : en:01:08:44.579
    01:15:49.003 : en:01:15:49.003
    01:30:00.687 : en:01:30:00.687
    01:37:06.863 : en:01:37:06.863
    01:46:18.163 : en:01:46:18.163
    01:49:30.189 : en:01:49:30.189
    01:53:57.664 : en:01:53:57.664
    02:03:21.311 : en:02:03:21.311
    02:06:37.256 : en:02:06:37.256
    02:13:28.125 : en:02:13:28.125
    02:19:47.462 : en:02:19:47.462
    02:25:56.706 : en:02:25:56.706
    02:36:56.032 : en:02:36:56.032
    02:44:43.540 : en:02:44:43.540
    02:53:05.750 : en:02:53:05.750

    Релиз подготовлен 60 - fps



Вы не можете начинать темы
Вы не можете отвечать на сообщения
Вы не можете редактировать свои сообщения
Вы не можете удалять свои сообщения
Вы не можете голосовать в опросах
Вы не можете прикреплять файлы к сообщениям
Вы не можете скачивать файлы