Стражи Галактики. Часть 2 / Guardians of the Galaxy Vol. 2 (2017) BDRip 1080p | 60 fps Джон Уик 2 / John Wick: Chapter Two (2017) BDRip 720p | 60 fps Форсаж 8 / The Fate of the Furious (2017) BDRip 1080p | 60 fps Призрак в доспехах / Ghost in the Shell (2017) BDRip 1080p | 60 fps Пираты Карибского моря: Мертвецы не рассказывают сказки / Pirates of the Caribbean: Dead Men Tell No Tales (2017) BDRip 1080p | 60 fps Форсаж 8 / The Fate of the Furious (2017) BDRip 720p | 60 fps Меч короля Артура / King Arthur: Legend of the Sword (2017) BDRip 1080p | 60 fps Варкрафт / Warcraft (2016) BDRip 1080p | 60 fps Чужой: Завет / Alien: Covenant (2016) BDRip 720p | 60 fps Конг: Остров черепа / Kong: Skull Island (2017) BDRip 1080p | 60 fps Доктор Стрэндж / Doctor Strange (2016) BDRip 1080p | 60 fps Чудо-женщина / Wonder Woman (2017) BDRip 1080p | 60 fps
  1. Стаж:
    3 года 3 месяца
    Сообщений:
    2174
    Пол:
    Мужской
     
    «Монстры бывают разные»- Информация
    Название: Кловерфилд, 10
    Оригинальное название: 10 Cloverfield Lane
    Год выхода: 2016
    Жанр: Ужасы, фантастика, триллер, драма, детектив
    Режиссер: Дэн Трактенберг
    Сценарий: Джош Кэмпбелл, Мэтт Стюкен, Дэмьен Шазелл
    Продюсер: Джей Джей Абрамс, Линдси Вебер, Брайан Берк
    В ролях: Джон Гудман, Мэри Элизабет Уинстэд, Джон Галлахер мл., Дуглас М. Гриффин, Сюзанн Крайер, Брэдли Купер, Сумали Монтано, Синди Хоган, Мат Ваиро
    --Сюжет:
    Проснувшись после автомобильной аварии, девушка оказывается в подвале человека, утверждающего, что он спас ей жизнь от химической атаки, которая сделала мир за пределами бункера непригодным для жизни.- Страна: США
    Продолжительность: 01:43:18

    Файл
    Кодек: MPEG4/ISO/AVC H.264
    Формат: MKV
    Качество: BDRip 720p | 60 fps
    Видео: 1280 x 534 (2.397) | 59.940 fps | 8.0 Мбит/сек
    Аудио 1: AC3 | 5.1 | 48 kHz | 256 kbps | 16 bit | Дубляж - Line |
    Аудио 2: AC3 | 5.1 | 48 kHz | 640 kbps | 16 bit | ENG |
    Субтитры: Russian, English

    MedifInfo

    Видео
    Идентификатор : 1
    Формат : AVC
    Формат/Информация : Advanced Video Codec
    Профиль формата : High@L4.1
    Параметр CABAC формата : Да
    Параметр ReFrames формата : 3 кадра
    Параметр GOP формата : M=3, N=72
    Идентификатор кодека : V_MPEG4/ISO/AVC
    Продолжительность : 1 ч. 43 м.
    Вид битрейта : Переменный
    Битрейт : 7703 Кбит/сек
    Максимальный битрейт : 8000 Кбит/сек
    Ширина : 1280 пикселей
    Высота : 534 пикселя
    Соотношение сторон : 2,40:1
    Режим частоты кадров : Постоянный
    Частота кадров : 59,880 кадров/сек
    Частота кадров в оригинале : 59,940 кадров/сек
    Стандарт вещания : PAL
    Цветовое пространство : YUV
    Субдискретизация насыщенности : 4:2:0
    Битовая глубина : 8 бит
    Тип развёртки : Прогрессивная
    Бит/(Пиксели*Кадры) : 0.188
    Размер потока : 5,57 Гбайт (88%)
    Заголовок : www.60-fps.org
    Язык : English
    Default : Да
    Forced : Нет
    Основные цвета : BT.601 NTSC
    Характеристики трансфера : BT.601
    Коэффициенты матрицы : BT.601
    colour_range : Limited
    Аудио #1
    Идентификатор : 2
    Формат : AC-3
    Формат/Информация : Audio Coding 3
    Расширение режима : CM (complete main)
    Параметр Endianness формата : Big
    Идентификатор кодека : A_AC3
    Продолжительность : 1 ч. 43 м.
    Вид битрейта : Постоянный
    Битрейт : 256 Кбит/сек
    Каналы : 2 канала
    Расположение каналов : Front: L R
    Частота : 48,0 КГц
    Битовая глубина : 16 бит
    Метод сжатия : С потерями
    Размер потока : 190 Мбайт (3%)
    Заголовок : Дубляж Line
    Язык : Russian
    Default : Да
    Forced : Нет
    Аудио #2
    Идентификатор : 3
    Формат : AC-3
    Формат/Информация : Audio Coding 3
    Расширение режима : CM (complete main)
    Параметр Endianness формата : Big
    Идентификатор кодека : A_AC3
    Продолжительность : 1 ч. 43 м.
    Вид битрейта : Постоянный
    Битрейт : 640 Кбит/сек
    Каналы : 6 каналов
    Расположение каналов : Front: L C R, Side: L R, LFE
    Частота : 48,0 КГц
    Битовая глубина : 16 бит
    Метод сжатия : С потерями
    Размер потока : 474 Мбайт (7%)
    Заголовок : ENG
    Язык : English
    Default : Нет
    Forced : Нет
    Текст #1
    Идентификатор : 4
    Формат : UTF-8
    Идентификатор кодека : S_TEXT/UTF8
    Идентификатор кодека/Информация : UTF-8 Plain Text
    Заголовок : full
    Язык : Russian
    Default : Нет
    Forced : Нет
    Текст #2
    Идентификатор : 5
    Формат : UTF-8
    Идентификатор кодека : S_TEXT/UTF8
    Идентификатор кодека/Информация : UTF-8 Plain Text
    Язык : English
    Default : Нет
    Forced : Нет
    Меню
    00:00:00.000 : en:00:00:00.000
    00:05:55.605 : en:00:05:55.605
    00:14:52.517 : en:00:14:52.517
    00:19:18.157 : en:00:19:18.157
    00:24:11.992 : en:00:24:11.992
    00:32:21.940 : en:00:32:21.940
    00:42:59.243 : en:00:42:59.243
    00:47:47.740 : en:00:47:47.740
    00:53:37.089 : en:00:53:37.089
    00:57:00.626 : en:00:57:00.626
    01:03:10.745 : en:01:03:10.745
    01:11:20.193 : en:01:11:20.193
    01:15:49.420 : en:01:15:49.420
    01:24:21.265 : en:01:24:21.265
    01:28:19.085 : en:01:28:19.085
    01:37:31.512 : en:01:37:31.512

    Релиз подготовлен 60 - fps



    Последний раз редактировалось: Kryl (2016-07-04 19:15), всего редактировалось 1 раз
  2. bot

    Стаж:
    3 года 3 месяца
    Сообщений:
    412
    Пол:
    Не указан
    Топик был перенесен из форума Новинки КиноПроката 60 FPS в форум Зарубежные фильмы 60 FPS
    Kryl
    24-Июл-2016 12:50 (спустя 1 месяц 19 дней)
  3. Стаж:
    2 года 5 месяцев
    Сообщений:
    147
    Пол:
    Мужской
     
    Большое Спасибо :)
    24-Июл-2016 13:32 (спустя 1 месяц 19 дней)


Вы не можете начинать темы
Вы не можете отвечать на сообщения
Вы не можете редактировать свои сообщения
Вы не можете удалять свои сообщения
Вы не можете голосовать в опросах
Вы не можете прикреплять файлы к сообщениям
Вы не можете скачивать файлы