Джентльмены удачи (1971) BDRip-AVC | 60 fps Операция «Ы» и другие приключения Шурика (1965) BDRip-AVC | 60 fps Брат 2 (2000 г.) DVDRip | 60 fps Собачье сердце (1988) HD 720p | 60 fps Иван Васильевич меняет профессию (1973) BDRip-AVC | 60 fps Гоголь. Начало (2017) BDRip 1080p | 60 fps Кавказская пленница, или Новые приключения Шурика (1966) BDRip-AVC | 60 fps 28 панфиловцев (2016) BDRip 1080p | 60 fps Девчата (1961) BDRip 720p | 60 fps Притяжение (2017) BDRip 1080p | 60 fps Брат (1997) HDDVDRip 720p | 60fps Жмурки (2005) BDRip 720p | 60 fps
  1. Стаж:
    3 года 3 месяца
    Сообщений:
    2174
    Пол:
    Мужской
     
    «Данила возвращается!»- Информация о фильме
    Название: Брат 2
    Год выхода: 2000
    Жанр: Боевик, криминал.
    Режиссер: Алексей Балабанов
    Сценарий: Алексей Балабанов
    Продюсер: Валери Гобо, Сергей Сельянов
    В ролях: Сергей Бодров мл., Виктор Сухоруков, Сергей Маковецкий, Ирина Салтыкова, Кирилл Пирогов, Александр Дьяченко, Дарья Лесникова, Гари Хьюстон, Рэй Толер, Лиза Джеффри.
    --О фильме:
    Участвуя в программе на телевидении, Данила Багров встречает своих друзей по Чечне. Одного из них внезапно убивают. Данила знает, что у того были неприятности из-за брата-хоккеиста в Америке. Данила должен разобраться. Он вылетает в Америку и для компании берёт с собой брата. Теперь его фотография ходит по рукам русской и американской мафии. Новоявленные «Аль Капоне» понимают, что нарвались на профессионала…- - Страна: Россия, США
    Продолжительность: 02:02:37
    -- Файл
    Кодек: MPEG4/ISO/AVC H.264
    Формат: MKV
    Качество: DVDRip 60 fps
    Видео: 720 x 416 (1.731) | 60.000 fps | 3.8 Мбит/сек
    Аудио: AC-3 | 5.1 | 48 kHz | 448 Кбит/сек | 16 bit |

    MedifInfo

    Видео
    Идентификатор : 1
    Формат : AVC
    Формат/Информация : Advanced Video Codec
    Профиль формата : High@L4.1
    Параметр CABAC формата : Да
    Параметр ReFrames формата : 3 кадра
    Параметр GOP формата : M=3, N=72
    Идентификатор кодека : V_MPEG4/ISO/AVC
    Продолжительность : 2 ч. 2 м.
    Вид битрейта : Переменный
    Битрейт : 3894 Кбит/сек
    Максимальный битрейт : 4000 Кбит/сек
    Ширина : 720 пикселей
    Высота : 416 пикселей
    Соотношение сторон : 1,731
    Режим частоты кадров : Постоянный
    Частота кадров : 60,000 кадров/сек
    Стандарт вещания : PAL
    Цветовое пространство : YUV
    Субдискретизация насыщенности : 4:2:0
    Битовая глубина : 8 бит
    Тип развёртки : Прогрессивная
    Бит/(Пиксели*Кадры) : 0.217
    Размер потока : 3,34 Гбайт (88%)
    Заголовок : www.60-fps.org
    Язык : English
    Default : Да
    Forced : Нет
    Основные цвета : BT.601 NTSC
    Характеристики трансфера : BT.601
    Коэффициенты матрицы : BT.601
    colour_range : Limited
    Аудио
    Идентификатор : 2
    Формат : AC-3
    Формат/Информация : Audio Coding 3
    Расширение режима : CM (complete main)
    Параметр Endianness формата : Big
    Идентификатор кодека : A_AC3
    Продолжительность : 2 ч. 2 м.
    Вид битрейта : Постоянный
    Битрейт : 448 Кбит/сек
    Каналы : 6 каналов
    Расположение каналов : Front: L C R, Side: L R, LFE
    Частота : 48,0 КГц
    Битовая глубина : 16 бит
    Метод сжатия : С потерями
    Размер потока : 393 Мбайт (10%)
    Заголовок : AC3
    Default : Да
    Forced : Нет

    Релиз подготовлен 60 - fps



    Последний раз редактировалось: Kryl (2015-10-27 11:19), всего редактировалось 2 раз(а)
  2. Стаж:
    2 года 8 месяцев
    Сообщений:
    97
    Пол:
    Не указан
     
    Фильм Классный!!!
    Помню в классе у парня появился свитер как у Бодрова в фильме...
    Все реально обзавидовались)))
    27-Окт-2015 10:32 (спустя 13 минут)
  3. Стаж:
    3 года 3 месяца
    Сообщений:
    2174
    Пол:
    Мужской
     
    Исходника нормального нет :ac:
    27-Окт-2015 10:47 (спустя 14 минут)
  4. Стаж:
    1 год 10 месяцев
    Сообщений:
    1
    Пол:
    Не указан
     
    Однозначно в коллекцию!
    28-Фев-2016 21:51 (спустя 4 месяца 1 день)
  5. Стаж:
    8 месяцев 12 дней
    Сообщений:
    4
    Пол:
    Не указан
     
    Пожалуйста, встаньте на раздачу. Спасибо.
    23-Июл-2017 12:31 (спустя 1 год 4 месяца)
  6. Стаж:
    4 месяца 14 дней
    Сообщений:
    1
    Пол:
    Мужской
     
    раз 10 смотрел и еще бы посмотрел в хорошем качестве! Спасибо большое
    08-Сен-2017 21:03 (спустя 1 месяц 16 дней)
  7. Стаж:
    7 месяцев 26 дней
    Сообщений:
    1
    Пол:
    Не указан
     
    это золото русского кино
    13-Окт-2017 17:07 (спустя 1 месяц 4 дня)


Вы не можете начинать темы
Вы не можете отвечать на сообщения
Вы не можете редактировать свои сообщения
Вы не можете удалять свои сообщения
Вы не можете голосовать в опросах
Вы не можете прикреплять файлы к сообщениям
Вы не можете скачивать файлы