Luis Fonsi - Despacito ft. Daddy Yankee (2017) WEBRip 1080p | 60 fps Jennifer Lopez feat. Gente de Zona - Ni Tu Ni Yo (2017) WEBRip 1080p | 60 fps Taylor Swift - …Ready For It? (2017) WEBRip 1080p | 60 fps Katy Perry - Dark Horse (2014) Full HD 1080p | 60 fps Inna - Gimme Gimme (2017) Full HD 1080p | 60 fps Taylor Swift - Look What You Made Me Do (2017) WEBRip 1080p | 60 fps Serebro - В Космосе (2017) Full HD 1080p | 60 fps DJ Khaled feat. Rihanna & Bryson Tiller - Wild Thoughts (2017) Full HD 1080p | 60 fps Britney Spears - Toxic (2004) HDTVRip 1080p | 60 fps Глюк'oZа feat. Artik & Asti - Пахну лишь тобой (2017) 2K | WEBRip | 60 fps Shakira - Chantaje ft. Maluma (2016) Full HD 1080p | 60 fps Rihanna - Needed Me (2016) Full HD 1080p | 60 fps
  1. Стаж:
    3 года
    Сообщений:
    284
    Пол:
    Мужской
     
    Alexandra Stan feat. Inna - We Wanna (2015) Full HD 1080p | 60 fps

    Информация о Клипе:
    Исполнители: Alexandra Stan feat. Inna
    Название: We Wanna
    Год выпуска: 2015 г.
    Жанр: Pop
    Продолжительность: 00:04:05

    Файл:
    Формат видео: MKV
    Качество видео: Full HD 1080p | 60 fps
    Видео кодек: H.264
    Аудио кодек: AC3
    Видео: 1920x856 | 59.940 fps | 21,7 Мбит/сек
    Аудио: AC3 | 2 channels | 48 kHz | 448 Кбит/сек

    Автор Рипа:Kamikkadze

    MediaInfo

    Видео
    Идентификатор : 1
    Формат : AVC
    Формат/Информация : Advanced Video Codec
    Профиль формата : High@L4.1
    Параметр CABAC формата : Да
    Параметр ReFrames формата : 4 кадра
    Идентификатор кодека : V_MPEG4/ISO/AVC
    Продолжительность : 4 м. 5 с.
    Битрейт : 21,7 Мбит/сек
    Ширина : 1920 пикселей
    Высота : 856 пикселей
    Соотношение сторон : 2,25:1
    Режим частоты кадров : Постоянный
    Частота кадров : 59,880 кадров/сек
    Частота кадров в оригинале : 59,940 кадров/сек
    Цветовое пространство : YUV
    Субдискретизация насыщенности : 4:2:0
    Битовая глубина : 8 бит
    Тип развёртки : Прогрессивная
    Бит/(Пиксели*Кадры) : 0.220
    Размер потока : 623 Мбайт (96%)
    Заголовок : Alexandra Stan feat. Inna - We Wanna « R.G 60-FPS Rip By Kamikkadze »
    Библиотека кодирования : x264 core 146 r2538 121396c
    Настройки программы : cabac=1 / ref=4 / deblock=1:-2:2 / analyse=0x3:0x113 / me=hex / subme=9 / psy=1 / psy_rd=1.00:0.15 / mixed_ref=1 / me_range=16 / chroma_me=1 / trellis=1 / 8x8dct=1 / cqm=0 / deadzone=21,11 / fast_pskip=1 / chroma_qp_offset=-3 / threads=6 / lookahead_threads=1 / sliced_threads=0 / nr=0 / decimate=1 / interlaced=0 / bluray_compat=0 / constrained_intra=0 / bframes=3 / b_pyramid=2 / b_adapt=1 / b_bias=0 / direct=3 / weightb=1 / open_gop=0 / weightp=2 / keyint=250 / keyint_min=25 / scenecut=40 / intra_refresh=0 / rc_lookahead=40 / rc=2pass / mbtree=1 / bitrate=21690 / ratetol=1.0 / qcomp=0.60 / qpmin=0 / qpmax=69 / qpstep=4 / cplxblur=20.0 / qblur=0.5 / ip_ratio=1.40 / aq=1:1.00
    Default : Да
    Forced : Нет
    Аудио
    Идентификатор : 2
    Формат : AC-3
    Формат/Информация : Audio Coding 3
    Расширение режима : CM (complete main)
    Параметр Endianness формата : Big
    Идентификатор кодека : A_AC3
    Продолжительность : 4 м. 5 с.
    Вид битрейта : Постоянный
    Битрейт : 448 Кбит/сек
    Каналы : 2 канала
    Расположение каналов : Front: L R
    Частота : 48,0 КГц
    Метод сжатия : С потерями
    Размер потока : 13,1 Мбайт (2%)
    Default : Да
    Forced : Нет
    Просьба к переливающим на другие сайты, в оформлении указывайте пожалуйста авторство рипа - Kamikkadze

    Релиз подготовлен 60 - fps

  2. Стаж:
    2 года 11 месяцев
    Сообщений:
    3
    Пол:
    Не указан
     
    good
    30-Июн-2015 21:18 (спустя 3 часа)
  3. Стаж:
    2 года 11 месяцев
    Сообщений:
    3
    Пол:
    Не указан
     
    Thank you
    How can I download it?
    30-Июн-2015 21:18 (спустя 27 секунд)
  4. Стаж:
    3 года
    Сообщений:
    284
    Пол:
    Мужской
     
    3134Thank you
    How can I download it?
    Download videos can torrent client
    http://www.utorrent.com/intl/ru/
    30-Июн-2015 21:25 (спустя 6 минут)
  5. ZHz

    Стаж:
    3 года 2 месяца
    Сообщений:
    188
    Пол:
    Мужской
     
    3135
    3134Thank you
    How can I download it?
    Download videos can torrent client
    http://www.utorrent.com/intl/ru/
    Как там в новом торренте с рекламой? а то разок обновился и все - теперь везде реклама
    30-Июн-2015 21:57 (спустя 32 минуты)
  6. Стаж:
    3 года
    Сообщений:
    284
    Пол:
    Мужской
     
    3136
    3135
    3134Thank you
    How can I download it?
    Download videos can torrent client
    http://www.utorrent.com/intl/ru/
    Как там в новом торренте с рекламой? а то разок обновился и все - теперь везде реклама
    рекламу вроде в настройках можно отключить, а я поставил себе торрент про версию.
    30-Июн-2015 23:32 (спустя 1 час 34 минуты)


Вы не можете начинать темы
Вы не можете отвечать на сообщения
Вы не можете редактировать свои сообщения
Вы не можете удалять свои сообщения
Вы не можете голосовать в опросах
Вы не можете прикреплять файлы к сообщениям
Вы не можете скачивать файлы